<?xml version="1.0" standalone="no"?>
<!DOCTYPE svg PUBLIC "-//W3C//DTD SVG 1.1//EN" "http://www.w3.org/Graphics/SVG/1.1/DTD/svg11.dtd" >
<svg xmlns="http://www.w3.org/2000/svg" xmlns:xlink="http://www.w3.org/1999/xlink" version="1.1">
<metadata>
Created by FontForge 20170731 at Thu Jun  3 09:28:15 2021
 By Aleksey,,,
(c)2009 Commercial Type.
</metadata>
<defs>
<font id="Graphik-Regular" horiz-adv-x="1228" >
  <font-face 
    font-family="Graphik Regular"
    font-weight="400"
    font-stretch="normal"
    units-per-em="2048"
    panose-1="2 11 5 3 3 2 2 6 2 3"
    ascent="1675"
    descent="-373"
    x-height="1071"
    cap-height="1464"
    bbox="-471 -451 2236 2279"
    underline-thickness="102"
    underline-position="-307"
    unicode-range="U+0020-FB02"
  />
<missing-glyph horiz-adv-x="1024" 
 />
    <glyph glyph-name="f_f" unicode="ff" horiz-adv-x="1298" 
d="M209 0v928h-154v143h154v160q0 165 80.5 254.5t238.5 89.5q62 0 127 -21v-143q-59 23 -120 23q-80 0 -118 -49.5t-38 -135.5v-178h420v174q0 165 80.5 254.5t238.5 89.5q66 0 127 -20v-144q-59 23 -121 23q-155 0 -155 -184v-193h262v-143h-262v-928h-170v928h-420v-928
h-170z" />
    <glyph glyph-name=".notdef" horiz-adv-x="1024" 
 />
    <glyph glyph-name=".null" horiz-adv-x="0" 
 />
    <glyph glyph-name="nonmarkingreturn" horiz-adv-x="682" 
 />
    <glyph glyph-name="space" unicode=" " horiz-adv-x="542" 
 />
    <glyph glyph-name="exclam" unicode="!" horiz-adv-x="585" 
d="M293 -10q-54 0 -92.5 38t-38.5 93t38.5 93t92.5 38t92.5 -38t38.5 -93t-38.5 -93t-92.5 -38zM229 414l-28 1050h188l-29 -1050h-131z" />
    <glyph glyph-name="quotedbl" unicode="&#x22;" horiz-adv-x="768" 
d="M156 963l-31 501h184l-30 -501h-123zM489 963l-30 501h184l-31 -501h-123z" />
    <glyph glyph-name="numbersign" unicode="#" horiz-adv-x="1030" 
d="M516 203l53 375h-198l-54 -375h-139l53 375h-170v143h193l39 270h-174v144h194l49 329h140l-49 -329h198l49 329h140l-49 -329h178v-144h-199l-39 -270h180v-143h-202l-54 -375h-139zM432 991l-39 -270h199l39 270h-199z" />
    <glyph glyph-name="dollar" unicode="$" horiz-adv-x="1284" 
d="M584 -276v260q-102 7 -183 35t-134.5 70t-91 100t-56.5 120.5t-27 136.5h172q7 -54 17 -93.5t32.5 -82t55.5 -70.5t87.5 -49t127.5 -28v569q-106 20 -182 48.5t-134.5 74t-87 113t-28.5 157.5q0 161 120.5 272.5t311.5 123.5v184h121v-186q185 -17 295 -119.5t130 -280.5
h-159q-23 119 -87.5 182t-178.5 78v-512q118 -21 199 -50t141 -77t88 -118t28 -168q0 -175 -128.5 -296.5t-327.5 -133.5v-260h-121zM991 401q0 117 -61 176.5t-225 94.5v-549q125 12 205.5 89t80.5 189zM313 1102q0 -52 10.5 -88t39.5 -69t83 -56.5t138 -40.5v493
q-127 -10 -199 -76t-72 -163z" />
    <glyph glyph-name="percent" unicode="%" horiz-adv-x="1605" 
d="M406 918q84 0 132 55t48 157q0 98 -48.5 155.5t-131.5 57.5t-132 -56t-49 -159q0 -102 48.5 -156t132.5 -54zM406 784q-134 0 -235 98t-101 244q0 149 100 250t236 101q138 0 236.5 -100t98.5 -247q0 -149 -99.5 -247.5t-235.5 -98.5zM276 0l895 1464h156l-895 -1464
h-156zM1200 117q84 0 132 55.5t48 157.5q0 98 -48.5 155.5t-131.5 57.5t-131.5 -56t-48.5 -159q0 -102 48 -156.5t132 -54.5zM1200 -16q-134 0 -235 98t-101 244q0 149 100 249.5t236 100.5q138 0 237 -99.5t99 -246.5q0 -149 -100 -247.5t-236 -98.5z" />
    <glyph glyph-name="ampersand" unicode="&#x26;" horiz-adv-x="1404" 
d="M1319 756l-240 -457l246 -299h-207l-145 176q-165 -190 -406 -190q-203 0 -333 110.5t-130 290.5q0 84 25 152.5t73.5 121t104.5 90.5t133 76q-129 167 -129 310q0 106 52 184t132 115t175 37q136 0 227.5 -85.5t91.5 -216.5q0 -243 -313 -378l307 -375l178 338h158z
M573 125q179 0 312 160l-365 444q-58 -28 -99 -56.5t-75.5 -67.5t-52 -89t-17.5 -113q0 -131 79 -204.5t218 -73.5zM475 1135q0 -52 31 -109t96 -139q125 56 176 120t51 169q0 71 -46 117t-119 46q-82 0 -135.5 -51t-53.5 -153z" />
    <glyph glyph-name="quotesingle" unicode="'" horiz-adv-x="434" 
d="M156 963l-31 501h184l-30 -501h-123z" />
    <glyph glyph-name="parenleft" unicode="(" horiz-adv-x="659" 
d="M449 -303q-340 400 -340 942q0 288 93 525.5t247 418.5h169q-154 -192 -242.5 -420.5t-88.5 -523.5q0 -294 88 -522t243 -420h-169z" />
    <glyph glyph-name="parenright" unicode=")" horiz-adv-x="659" 
d="M41 -297q155 192 243.5 421t88.5 523t-88.5 521.5t-243.5 420.5h170q340 -400 340 -942q0 -288 -93 -525.5t-247 -418.5h-170z" />
    <glyph glyph-name="asterisk" unicode="*" horiz-adv-x="864" 
d="M285 838l-117 84l170 227l-252 59l45 138l242 -99l-15 275h150l-14 -275l239 99l45 -138l-254 -59l170 -227l-114 -84l-152 245z" />
    <glyph glyph-name="plus" unicode="+" horiz-adv-x="1062" 
d="M457 215v414h-383v143h383v414h149v-414h383v-143h-383v-414h-149z" />
    <glyph glyph-name="comma" unicode="," horiz-adv-x="577" 
d="M184 -252l-110 57l196 449l166 -78z" />
    <glyph glyph-name="hyphen" unicode="-" horiz-adv-x="684" 
d="M123 483v160h438v-160h-438z" />
    <glyph glyph-name="period" unicode="." horiz-adv-x="577" 
d="M289 -10q-54 0 -92.5 38t-38.5 93t38.5 93t92.5 38t92.5 -38t38.5 -93t-38.5 -93t-92.5 -38z" />
    <glyph glyph-name="slash" unicode="/" horiz-adv-x="825" 
d="M12 -303l596 1892h156l-596 -1892h-156z" />
    <glyph glyph-name="zero" unicode="0" horiz-adv-x="1394" 
d="M705 129q191 0 289 144t98 423v82q0 258 -104 409.5t-288 151.5q-187 0 -291 -148t-104 -417v-82q0 -273 106.5 -418t293.5 -145zM705 -18q-263 0 -422.5 194.5t-159.5 513.5v82q0 326 155 518.5t422 192.5q266 0 419 -194.5t153 -512.5v-82q0 -324 -150.5 -518
t-416.5 -194z" />
    <glyph glyph-name="one" unicode="1" horiz-adv-x="817" 
d="M395 0v1288l-327 -235v166l340 245h165v-1464h-178z" />
    <glyph glyph-name="two" unicode="2" horiz-adv-x="1134" 
d="M39 0v41l582 612q104 111 157 213.5t53 210.5q0 123 -69 192.5t-193 69.5q-268 0 -309 -325h-166q17 217 142.5 343t332.5 126q203 0 323 -111.5t120 -300.5q0 -244 -295 -532l-404 -394h707v-145h-981z" />
    <glyph glyph-name="three" unicode="3" horiz-adv-x="1236" 
d="M594 -18q-228 0 -366 126.5t-146 323.5h164q13 -139 100 -223t252 -84q167 0 250.5 75t83.5 208q0 284 -309 284h-111v150h102q275 0 275 250q0 109 -68.5 177t-197.5 68q-136 0 -223 -75.5t-101 -200.5h-156q8 178 141.5 300t338.5 122q102 0 186 -32t139 -85.5t85 -123
t30 -146.5q0 -224 -232 -320q133 -35 208 -127.5t75 -240.5q0 -196 -144.5 -311t-375.5 -115z" />
    <glyph glyph-name="four" unicode="4" horiz-adv-x="1263" 
d="M813 0v307h-733v58l670 1099h237v-1011h203v-146h-203v-307h-174zM305 453h508v876z" />
    <glyph glyph-name="five" unicode="5" horiz-adv-x="1202" 
d="M575 -18q-227 0 -349 112t-138 301h170q12 -65 30.5 -110.5t53.5 -83.5t92.5 -57t138.5 -19q150 0 236 94.5t86 259.5q0 155 -84 248.5t-223 93.5q-122 0 -203 -35.5t-143 -105.5h-66v784h823v-153h-675v-447q108 101 299 101q200 0 327 -132.5t127 -353.5
q0 -150 -67.5 -264.5t-181 -173.5t-253.5 -59z" />
    <glyph glyph-name="six" unicode="6" horiz-adv-x="1267" 
d="M649 -18q-117 0 -208 34.5t-150 93.5t-97.5 144.5t-54.5 182t-16 210.5v35q0 385 157 593t416 208q174 0 286.5 -90.5t141.5 -264.5h-170q-26 106 -88.5 157.5t-181.5 51.5q-171 0 -275 -151t-110 -434q54 91 153 144.5t224 53.5q214 0 346.5 -137t132.5 -342
q0 -221 -137.5 -355t-368.5 -134zM649 121q145 0 234.5 93.5t89.5 248.5q0 159 -88.5 253.5t-237.5 94.5q-148 0 -242 -91t-94 -233q0 -175 93 -270.5t245 -95.5z" />
    <glyph glyph-name="seven" unicode="7" horiz-adv-x="1075" 
d="M299 0l510 1321h-743v143h964v-24l-549 -1440h-182z" />
    <glyph glyph-name="eight" unicode="8" horiz-adv-x="1243" 
d="M623 -18q-92 0 -180.5 27.5t-162 79.5t-118.5 137t-45 190q0 141 76 238t200 141q-105 40 -163 120t-58 187q0 114 66.5 203t168 133.5t216.5 44.5t216.5 -45.5t166.5 -133.5t65 -198q0 -107 -60 -185t-165 -124q131 -47 205.5 -143.5t74.5 -233.5q0 -106 -43.5 -191.5
t-115.5 -138t-160.5 -80.5t-183.5 -28zM623 127q140 0 230.5 78.5t90.5 220.5q0 139 -90 215t-227 76q-138 0 -233 -77.5t-95 -217.5q0 -138 94.5 -216.5t229.5 -78.5zM629 858q119 0 190.5 65.5t71.5 180.5q0 105 -76.5 172t-191.5 67q-117 0 -194 -66t-77 -177
q0 -112 80 -177t197 -65z" />
    <glyph glyph-name="nine" unicode="9" horiz-adv-x="1269" 
d="M594 -16q-200 0 -320.5 98.5t-150.5 277.5h172q26 -113 97 -172t206 -59q177 0 274.5 147t100.5 435q-53 -90 -153.5 -142.5t-225.5 -52.5q-212 0 -346.5 135.5t-134.5 343.5q0 221 137.5 355.5t367.5 134.5q258 0 392.5 -169t134.5 -487v-92q0 -363 -144 -558t-407 -195
zM621 655q148 0 241.5 88t93.5 230q0 176 -93 274.5t-245 98.5q-145 0 -234 -93.5t-89 -248.5q0 -159 88.5 -254t237.5 -95z" />
    <glyph glyph-name="colon" unicode=":" horiz-adv-x="598" 
d="M299 -10q-54 0 -92.5 38t-38.5 93t38.5 93t92.5 38t92.5 -38t38.5 -93t-38.5 -93t-92.5 -38zM299 598q-54 0 -92.5 38t-38.5 93t38.5 93t92.5 38t92.5 -38t38.5 -93t-38.5 -93t-92.5 -38z" />
    <glyph glyph-name="semicolon" unicode=";" horiz-adv-x="598" 
d="M154 -252l-111 57l197 449l166 -78zM317 598q-54 0 -92.5 38t-38.5 93t38.5 93t92.5 38t93 -38t39 -93t-39 -93t-93 -38z" />
    <glyph glyph-name="less" unicode="&#x3c;" horiz-adv-x="1032" 
d="M895 195l-786 444v41l786 444v-163l-539 -302l539 -301v-163z" />
    <glyph glyph-name="equal" unicode="=" horiz-adv-x="991" 
d="M82 401v148h827v-148h-827zM82 770v148h827v-148h-827z" />
    <glyph glyph-name="greater" unicode="&#x3e;" horiz-adv-x="1032" 
d="M137 195v163l539 301l-539 302v163l787 -444v-41z" />
    <glyph glyph-name="question" unicode="?" horiz-adv-x="1001" 
d="M367 414v102q0 40 7.5 76.5t26 72t32.5 59.5t46 59t47 50l52 52q49 49 76 80.5t50 78.5t23 93q0 95 -54.5 149.5t-164.5 54.5q-115 0 -188 -72t-84 -194h-160q11 182 129.5 295t304.5 113q101 0 178 -28.5t122 -77.5t67 -108t22 -126q0 -44 -13 -86t-28 -71.5t-48 -68.5
t-52 -57.5t-60 -58.5q-45 -43 -69 -68.5t-54 -65.5t-43.5 -80t-13.5 -85v-88h-151zM438 -10q-54 0 -92.5 38t-38.5 93t38.5 93t92.5 38t92.5 -38t38.5 -93t-38.5 -93t-92.5 -38z" />
    <glyph glyph-name="at" unicode="@" horiz-adv-x="1873" 
d="M940 -301q-160 0 -297.5 44.5t-237.5 123t-171.5 184t-106.5 228t-35 253.5q0 184 70.5 348t189 279.5t279.5 182.5t336 67q180 0 333 -58t258.5 -158.5t164.5 -238.5t59 -295q0 -111 -24.5 -201.5t-63.5 -149t-90.5 -98t-103 -56.5t-103.5 -17q-117 0 -170 45t-66 131
q-46 -82 -129 -136t-176 -54q-150 0 -240 95.5t-90 260.5q0 203 117.5 339t286.5 136q101 0 162 -39.5t86 -99.5l14 123h170l-62 -516q-21 -162 99 -162q97 0 166 99.5t69 295.5q0 280 -177.5 449.5t-489.5 169.5q-153 0 -286 -54.5t-228 -151t-149 -234t-54 -297.5
q0 -142 44.5 -267.5t128.5 -223.5t217.5 -155t299.5 -57q161 0 272 40t211 126h158q-79 -136 -251 -218.5t-390 -82.5zM893 254q103 0 182.5 90t79.5 244q0 115 -55.5 173t-157.5 58q-101 0 -171.5 -91.5t-70.5 -246.5q0 -105 54 -166t139 -61z" />
    <glyph glyph-name="A" unicode="A" horiz-adv-x="1380" 
d="M74 0l504 1464h233l496 -1464h-177l-143 422h-604l-141 -422h-168zM686 1317l-254 -754h508z" />
    <glyph glyph-name="B" unicode="B" horiz-adv-x="1273" 
d="M184 0v1464h441q85 0 154 -11.5t129 -39t101 -70t64 -108t23 -150.5v-8q0 -234 -222 -309q157 -38 225 -121.5t68 -228.5v-8q0 -202 -127.5 -306t-353.5 -104h-502zM358 139h324q311 0 311 273v8q0 136 -80.5 201t-255.5 65h-299v-547zM358 825h267q160 0 228.5 61
t68.5 197v9q0 123 -72.5 178t-228.5 55h-263v-500z" />
    <glyph glyph-name="C" unicode="C" horiz-adv-x="1495" 
d="M797 -18q-317 0 -500.5 200.5t-183.5 540.5v16q0 214 88.5 385t246 267t353.5 96q156 0 282.5 -52.5t211.5 -162.5t100 -264h-176q-28 170 -129.5 254t-286.5 84q-228 0 -367 -164.5t-139 -440.5v-16q0 -280 134 -439t370 -159q183 0 299 91t143 267h166
q-37 -248 -198.5 -375.5t-413.5 -127.5z" />
    <glyph glyph-name="D" unicode="D" horiz-adv-x="1425" 
d="M362 145h201q277 0 421 155t144 429v16q0 130 -32.5 233t-99.5 181t-177 120t-258 42h-199v-1176zM184 0v1464h387q184 0 327.5 -54.5t233 -152.5t135.5 -227.5t46 -284.5v-18q0 -123 -28 -231.5t-87.5 -200t-146.5 -157t-210.5 -102t-273.5 -36.5h-383z" />
    <glyph glyph-name="E" unicode="E" horiz-adv-x="1159" 
d="M184 0v1464h854v-145h-676v-498h545v-145h-545v-531h713v-145h-891z" />
    <glyph glyph-name="F" unicode="F" horiz-adv-x="1118" 
d="M184 0v1464h856v-145h-678v-518h529v-146h-529v-655h-178z" />
    <glyph glyph-name="G" unicode="G" horiz-adv-x="1570" 
d="M821 -18q-220 0 -382 96.5t-244 263t-82 381.5v16q0 212 88.5 382.5t251 268t368.5 97.5q112 0 210 -27t179.5 -81.5t136 -145.5t70.5 -211h-178q-30 168 -138 246t-276 78q-248 0 -388 -166t-140 -439v-16q0 -277 135.5 -438.5t388.5 -161.5q116 0 204.5 36t143 100.5
t83 147.5t30.5 183h-428v147h602v-108q0 -208 -81 -355.5t-223 -220.5t-331 -73z" />
    <glyph glyph-name="H" unicode="H" horiz-adv-x="1495" 
d="M184 0v1464h178v-663h771v663h178v-1464h-178v651h-771v-651h-178z" />
    <glyph glyph-name="I" unicode="I" horiz-adv-x="567" 
d="M195 0v1464h178v-1464h-178z" />
    <glyph glyph-name="J" unicode="J" horiz-adv-x="860" 
d="M283 -18q-131 0 -205 38v148q94 -41 194 -41q113 0 175.5 68t62.5 211v1058h178v-1067q0 -107 -31.5 -188t-87.5 -130t-128 -73t-158 -24z" />
    <glyph glyph-name="K" unicode="K" horiz-adv-x="1261" 
d="M184 0v1464h178v-704l637 706h199l-651 -712l684 -754h-215l-654 715v-715h-178z" />
    <glyph glyph-name="L" unicode="L" horiz-adv-x="1095" 
d="M184 0v1464h178v-1319h670v-145h-848z" />
    <glyph glyph-name="M" unicode="M" horiz-adv-x="1753" 
d="M184 0v1464h248l453 -1140l438 1140h246v-1464h-178v1233l-486 -1233h-55l-502 1233v-1233h-164z" />
    <glyph glyph-name="N" unicode="N" horiz-adv-x="1482" 
d="M184 0v1464h232l712 -1210v1210h170v-1464h-204l-740 1255v-1255h-170z" />
    <glyph glyph-name="O" unicode="O" horiz-adv-x="1660" 
d="M838 129q242 0 384 165.5t142 434.5v16q0 166 -61 299.5t-183 214t-286 80.5q-167 0 -289.5 -77t-185 -211.5t-62.5 -309.5v-16q0 -262 154.5 -429t386.5 -167zM838 -18q-159 0 -295 58.5t-230 158t-147 235.5t-53 289v16q0 155 52.5 291.5t146 236.5t229 158t293.5 58
t292.5 -58t226.5 -157.5t143.5 -235t51.5 -289.5v-16q0 -154 -51.5 -291t-143 -237t-225.5 -158.5t-290 -58.5z" />
    <glyph glyph-name="P" unicode="P" horiz-adv-x="1189" 
d="M184 0v1464h416q109 0 199.5 -24.5t161.5 -74.5t111 -134t40 -195v-8q0 -113 -40 -198t-112 -135t-162 -74.5t-198 -24.5h-238v-596h-178zM362 737h250q157 0 239.5 75t82.5 216v8q0 150 -83 217.5t-239 67.5h-250v-584z" />
    <glyph glyph-name="Q" unicode="Q" horiz-adv-x="1660" 
d="M1350 -182l-205 229q-136 -65 -307 -65q-159 0 -295 58.5t-230 158t-147 235.5t-53 289v16q0 155 52.5 291.5t146 236.5t229 158t293.5 58t292.5 -58t226.5 -157.5t143.5 -235t51.5 -289.5v-16q0 -185 -72 -341.5t-202 -258.5l184 -205zM838 129q113 0 200 37l-164 184
l109 105l186 -211q94 80 144.5 204.5t50.5 280.5v16q0 166 -61 299.5t-183 214t-286 80.5q-167 0 -289.5 -77t-185 -211.5t-62.5 -309.5v-16q0 -262 154.5 -429t386.5 -167z" />
    <glyph glyph-name="R" unicode="R" horiz-adv-x="1286" 
d="M184 0v1464h441q109 0 199 -23t161.5 -70t111.5 -127t40 -187v-8q0 -171 -99.5 -269.5t-263.5 -130.5l449 -649h-199l-436 637h-226v-637h-178zM362 778h275q158 0 239.5 68.5t81.5 202.5v8q0 143 -81.5 203.5t-239.5 60.5h-275v-543z" />
    <glyph glyph-name="S" unicode="S" horiz-adv-x="1284" 
d="M657 -18q-114 0 -205.5 24.5t-153 66.5t-104.5 102t-65.5 126.5t-30.5 144.5h172q10 -73 29.5 -125t61 -99.5t116 -72t180.5 -24.5q143 0 238.5 76.5t95.5 199.5q0 127 -74 187.5t-280 93.5q-121 19 -207 47t-152 74t-98.5 116t-32.5 166q0 170 133 284t338 114
q220 0 351 -104.5t153 -299.5h-159q-26 137 -109 198.5t-236 61.5q-146 0 -225.5 -65.5t-79.5 -171.5q0 -58 13.5 -96t51 -71t107.5 -55.5t181 -39.5q259 -40 378 -134t119 -292q0 -185 -144 -308.5t-362 -123.5z" />
    <glyph glyph-name="T" unicode="T" horiz-adv-x="1148" 
d="M485 0v1319h-426v145h1031v-145h-426v-1319h-179z" />
    <glyph glyph-name="U" unicode="U" horiz-adv-x="1425" 
d="M698 -18q-252 0 -389 143.5t-137 409.5v929h178v-909q0 -228 83.5 -327t268.5 -99q92 0 157.5 21t115.5 71t75 139.5t25 221.5v882h178v-907q0 -274 -139 -424.5t-416 -150.5z" />
    <glyph glyph-name="V" unicode="V" horiz-adv-x="1339" 
d="M559 0l-498 1464h177l436 -1292l436 1292h168l-506 -1464h-213z" />
    <glyph glyph-name="W" unicode="W" horiz-adv-x="1900" 
d="M451 0l-381 1464h182l297 -1181l344 1181h127l344 -1185l301 1185h166l-381 -1464h-164l-332 1157l-342 -1157h-161z" />
    <glyph glyph-name="X" unicode="X" horiz-adv-x="1345" 
d="M92 0l483 752l-450 712h197l364 -575l363 575h182l-455 -712l477 -752h-200l-391 616l-392 -616h-178z" />
    <glyph glyph-name="Y" unicode="Y" horiz-adv-x="1224" 
d="M537 0v639l-490 825h201l383 -680l368 680h179l-463 -827v-637h-178z" />
    <glyph glyph-name="Z" unicode="Z" horiz-adv-x="1218" 
d="M57 0v29l830 1290h-756v145h1002v-26l-807 -1286h794v-152h-1063z" />
    <glyph glyph-name="bracketleft" unicode="[" horiz-adv-x="729" 
d="M180 -303v1892h459v-135h-289v-1622h289v-135h-459z" />
    <glyph glyph-name="backslash" unicode="\" horiz-adv-x="825" 
d="M657 -303l-596 1892h156l596 -1892h-156z" />
    <glyph glyph-name="bracketright" unicode="]" horiz-adv-x="729" 
d="M90 -303v135h289v1622h-289v135h459v-1892h-459z" />
    <glyph glyph-name="asciicircum" unicode="^" horiz-adv-x="1038" 
d="M90 836l342 628h174l342 -628h-172l-260 483l-258 -483h-168z" />
    <glyph glyph-name="underscore" unicode="_" horiz-adv-x="806" 
d="M-2 -324v136h811v-136h-811z" />
    <glyph glyph-name="grave" unicode="`" horiz-adv-x="819" 
d="M362 1255l-212 301h212l127 -301h-127z" />
    <glyph glyph-name="a" unicode="a" horiz-adv-x="1105" 
d="M440 -18q-103 0 -181 32t-126.5 104.5t-48.5 178.5q0 89 44.5 155.5t122 104t170 55t200.5 17.5h153v78q0 128 -53 184.5t-176 56.5q-223 0 -246 -192h-170q8 88 46 154.5t97.5 104.5t129.5 56.5t151 18.5q65 0 120 -11t106 -38t86.5 -69.5t57 -110t21.5 -154.5v-707
h-170v135q-62 -78 -140.5 -115.5t-193.5 -37.5zM457 117q139 0 228 68.5t89 189.5v133h-147q-373 0 -373 -211q0 -88 47.5 -134t155.5 -46z" />
    <glyph glyph-name="b" unicode="b" horiz-adv-x="1284" 
d="M705 -18q-124 0 -219 54.5t-144 139.5v-176h-170v1583h170v-692q48 82 149.5 140.5t213.5 58.5q215 0 351 -146.5t136 -392.5v-16q0 -247 -133.5 -400t-353.5 -153zM688 123q159 0 243.5 104t84.5 299v17q0 194 -94 299.5t-236 105.5q-156 0 -253 -103.5t-97 -301.5v-17
q0 -199 95 -301t257 -102z" />
    <glyph glyph-name="c" unicode="c" horiz-adv-x="1167" 
d="M616 -18q-228 0 -376 148.5t-148 393.5v17q0 120 41 223.5t111 174.5t165.5 111t202.5 40q87 0 163 -21t140.5 -64t107 -117t54.5 -173h-168q-19 121 -98.5 177t-198.5 56q-150 0 -247 -111t-97 -296v-17q0 -192 95.5 -296.5t254.5 -104.5q120 0 207.5 68.5t100.5 193.5
h157q-17 -176 -146.5 -289.5t-320.5 -113.5z" />
    <glyph glyph-name="d" unicode="d" horiz-adv-x="1284" 
d="M575 -18q-215 0 -349 143t-134 389v16q0 246 139.5 403t360.5 157q125 0 212.5 -52.5t137.5 -138.5v684h170v-1583h-170v184q-48 -82 -151.5 -142t-215.5 -60zM594 123q157 0 255.5 104t98.5 301v17q0 201 -89.5 302t-250.5 101q-160 0 -250 -107.5t-90 -301.5v-17
q0 -194 91.5 -296.5t234.5 -102.5z" />
    <glyph glyph-name="e" unicode="e" horiz-adv-x="1163" 
d="M610 -18q-229 0 -373.5 148.5t-144.5 393.5v17q0 243 140.5 396t361.5 153q76 0 145 -18.5t131 -59.5t107 -101.5t71.5 -151t26.5 -202.5v-55h-807q6 -184 93.5 -281.5t250.5 -97.5q251 0 285 186h170q-27 -158 -149.5 -242.5t-307.5 -84.5zM274 639h627
q-22 309 -307 309q-129 0 -213.5 -82.5t-106.5 -226.5z" />
    <glyph glyph-name="f" unicode="f" horiz-adv-x="708" 
d="M209 0v928h-154v143h154v174q0 165 80.5 254.5t238.5 89.5q66 0 127 -20v-144q-59 23 -120 23q-80 0 -118 -49t-38 -135v-193h262v-143h-262v-928h-170z" />
    <glyph glyph-name="g" unicode="g" horiz-adv-x="1284" 
d="M600 -391q-224 0 -342.5 91.5t-142.5 238.5h174q38 -187 309 -187q164 0 254 81.5t90 248.5v156q-49 -83 -149.5 -143t-212.5 -60q-211 0 -349.5 143.5t-138.5 364.5v14q0 145 62.5 266.5t178 194t259.5 72.5q125 0 212.5 -52.5t137.5 -138.5v172h170v-999
q-1 -226 -140.5 -344.5t-371.5 -118.5zM598 176q153 0 251.5 101.5t98.5 277.5v14q0 179 -91 279t-249 100q-157 0 -248.5 -106t-91.5 -277v-16q0 -170 95 -271.5t235 -101.5z" />
    <glyph glyph-name="h" unicode="h" horiz-adv-x="1224" 
d="M172 0v1583h170v-682q40 81 129.5 135t214.5 54q175 0 276 -105t101 -328v-657h-170v670q0 141 -61.5 206.5t-190.5 65.5q-126 0 -212.5 -77.5t-86.5 -215.5v-649h-170z" />
    <glyph glyph-name="i" unicode="i" horiz-adv-x="522" 
d="M176 0v1071h170v-1071h-170zM258 1294q-46 0 -79.5 33.5t-33.5 79.5t33.5 79.5t79.5 33.5t79.5 -33.5t33.5 -79.5t-33.5 -79.5t-79.5 -33.5z" />
    <glyph glyph-name="j" unicode="j" horiz-adv-x="522" 
d="M18 -391v143q86 7 122 49t36 117v1153h170v-1139q0 -158 -77 -237.5t-251 -85.5zM258 1294q-46 0 -79.5 33.5t-33.5 79.5t33.5 79.5t79.5 33.5t79.5 -33.5t33.5 -79.5t-33.5 -79.5t-79.5 -33.5z" />
    <glyph glyph-name="k" unicode="k" horiz-adv-x="1056" 
d="M172 0v1583h170v-1005l444 493h199l-459 -498l498 -573h-207l-475 555v-555h-170z" />
    <glyph glyph-name="l" unicode="l" horiz-adv-x="524" 
d="M176 0v1583h172v-1583h-172z" />
    <glyph glyph-name="m" unicode="m" horiz-adv-x="1863" 
d="M172 0v1071h170v-164q39 79 124 131t196 52q109 0 191.5 -49t121.5 -152q52 98 154.5 149.5t211.5 51.5q75 0 138 -23.5t114 -72.5t80 -133t29 -197v-664h-170v676q0 138 -57 202t-170 64q-114 0 -198.5 -75.5t-84.5 -211.5v-655h-170v676q0 138 -57 202t-170 64
q-114 0 -198.5 -75.5t-84.5 -211.5v-655h-170z" />
    <glyph glyph-name="n" unicode="n" horiz-adv-x="1224" 
d="M172 0v1071h170v-170q40 81 129.5 135t214.5 54q175 0 276 -105t101 -328v-657h-170v670q0 141 -61.5 206.5t-190.5 65.5q-126 0 -212.5 -77.5t-86.5 -215.5v-649h-170z" />
    <glyph glyph-name="o" unicode="o" horiz-adv-x="1236" 
d="M618 123q160 0 255.5 110.5t95.5 292.5v15q0 186 -95.5 296.5t-255.5 110.5q-161 0 -255.5 -110t-94.5 -295v-17q0 -184 94 -293.5t256 -109.5zM616 -18q-228 0 -376 154.5t-148 389.5v17q0 240 149 393.5t377 153.5q229 0 378 -152.5t149 -392.5v-17
q0 -241 -149.5 -393.5t-379.5 -152.5z" />
    <glyph glyph-name="p" unicode="p" horiz-adv-x="1284" 
d="M172 -373v1444h170v-180q48 82 149.5 140.5t213.5 58.5q215 0 351 -146.5t136 -392.5v-16q0 -247 -133.5 -400t-353.5 -153q-125 0 -219.5 54.5t-143.5 139.5v-549h-170zM688 123q159 0 243.5 104t84.5 299v17q0 194 -94 299.5t-236 105.5q-156 0 -253 -103.5t-97 -301.5
v-17q0 -199 95 -301t257 -102z" />
    <glyph glyph-name="q" unicode="q" horiz-adv-x="1284" 
d="M942 -373v557q-48 -82 -151.5 -142t-215.5 -60q-215 0 -349 143t-134 389v16q0 246 139.5 403t360.5 157q125 0 212.5 -52.5t137.5 -138.5v172h170v-1444h-170zM594 123q157 0 255.5 104t98.5 301v17q0 201 -89.5 302t-250.5 101q-160 0 -250 -107.5t-90 -301.5v-17
q0 -194 91.5 -296.5t234.5 -102.5z" />
    <glyph glyph-name="r" unicode="r" horiz-adv-x="770" 
d="M172 0v1071h170v-192q56 100 136 153.5t216 57.5v-160q-86 -4 -146.5 -21t-109 -54.5t-72.5 -103.5t-24 -163v-588h-170z" />
    <glyph glyph-name="s" unicode="s" horiz-adv-x="983" 
d="M504 -18q-192 0 -302 91.5t-118 256.5h166q9 -100 68.5 -153.5t183.5 -53.5q121 0 177 41.5t56 128.5q0 80 -58 117.5t-192 62.5q-209 38 -290.5 107t-81.5 208q0 58 21.5 107.5t57.5 85t83 60.5t98 37t102 12q75 0 138 -16.5t116.5 -51.5t87.5 -96.5t45 -145.5h-164
q-19 88 -71.5 128t-153.5 40q-92 0 -147.5 -42t-55.5 -111q0 -73 51.5 -108.5t198.5 -61.5q76 -14 125.5 -27t101.5 -37t82 -56t49 -82t19 -116q0 -150 -101 -237.5t-292 -87.5z" />
    <glyph glyph-name="t" unicode="t" horiz-adv-x="727" 
d="M498 -14q-142 0 -215.5 76t-73.5 206v660h-154v143h154v244h170v-244h250v-143h-250v-643q0 -156 133 -156q70 0 131 23v-144q-64 -22 -145 -22z" />
    <glyph glyph-name="u" unicode="u" horiz-adv-x="1216" 
d="M535 -18q-170 0 -271.5 100t-101.5 311v678h170v-670q0 -140 60.5 -206t187.5 -66q122 0 208 77.5t86 215.5v649h170v-1071h-170v170q-40 -81 -128.5 -134.5t-210.5 -53.5z" />
    <glyph glyph-name="v" unicode="v" horiz-adv-x="1093" 
d="M440 0l-389 1071h185l317 -899l313 899h176l-385 -1071h-217z" />
    <glyph glyph-name="w" unicode="w" horiz-adv-x="1626" 
d="M387 0l-330 1071h185l250 -862l260 862h147l244 -862l252 862h174l-334 -1071h-188l-224 803l-250 -803h-186z" />
    <glyph glyph-name="x" unicode="x" horiz-adv-x="1081" 
d="M57 0l383 551l-358 520h199l262 -389l260 389h184l-354 -508l391 -563h-201l-288 432l-295 -432h-183z" />
    <glyph glyph-name="y" unicode="y" horiz-adv-x="1083" 
d="M268 -373l203 484l-420 960h182l328 -768l297 768h174l-592 -1444h-172z" />
    <glyph glyph-name="z" unicode="z" horiz-adv-x="989" 
d="M43 0v25l633 903h-572v143h834v-31l-619 -890h611v-150h-887z" />
    <glyph glyph-name="braceleft" unicode="{" horiz-adv-x="780" 
d="M690 -301q-236 0 -340.5 101t-64.5 325l39 213q5 37 3.5 72t-18.5 66.5t-44.5 55.5t-74.5 38t-108 14v127q61 0 108 14t74.5 37.5t44.5 55t18.5 66.5t-3.5 72l-39 213q-40 224 64.5 325t340.5 101v-129q-62 -1 -106 -10t-77.5 -30t-48.5 -55t-20 -85.5t8 -120.5l39 -235
q18 -111 -37 -183t-163 -100q108 -28 163 -99.5t37 -182.5l-39 -236q-13 -69 -8 -120.5t20 -85.5t48.5 -55t77.5 -30t106 -10v-129z" />
    <glyph glyph-name="bar" unicode="|" horiz-adv-x="518" 
d="M190 -303v1892h138v-1892h-138z" />
    <glyph glyph-name="braceright" unicode="}" horiz-adv-x="780" 
d="M90 -301v129q62 1 106 10t77.5 30t48.5 55t20 85.5t-8 120.5l-39 236q-18 111 37.5 182.5t163.5 99.5q-108 28 -163.5 100t-37.5 183l39 235q13 69 8 120.5t-20 85.5t-48.5 55t-77.5 30t-106 10v129q236 0 341 -101t65 -325l-39 -213q-5 -37 -3.5 -72t18.5 -66.5
t44.5 -55t74 -37.5t107.5 -14v-127q-61 0 -107.5 -14t-74 -38t-44.5 -55.5t-18.5 -66.5t3.5 -72l39 -213q40 -224 -65 -325t-341 -101z" />
    <glyph glyph-name="asciitilde" unicode="~" horiz-adv-x="911" 
d="M90 457q10 126 72.5 194t144.5 68q58 0 115 -26.5t101.5 -52.5t70.5 -26q35 0 61.5 28t30.5 81h135q-8 -128 -70 -195t-141 -67q-48 0 -95.5 16.5t-78.5 35.5t-63.5 35.5t-53.5 16.5q-35 0 -61 -28t-33 -80h-135z" />
    <glyph glyph-name="uni00A0" unicode="&#xa0;" horiz-adv-x="573" 
 />
    <glyph glyph-name="exclamdown" unicode="&#xa1;" horiz-adv-x="589" 
d="M199 -240l28 1051h131l29 -1051h-188zM295 973q-54 0 -92.5 38t-38.5 93t38.5 93t92.5 38t92.5 -38t38.5 -93t-38.5 -93t-92.5 -38z" />
    <glyph glyph-name="cent" unicode="&#xa2;" horiz-adv-x="1157" 
d="M547 -276v262q-203 21 -329 166t-126 372v17q0 223 128.5 371.5t326.5 172.5v203h121v-203q164 -13 275.5 -104t133.5 -266h-168q-16 104 -80 160t-161 69v-817q103 14 175 81t83 177h157q-15 -162 -129.5 -273t-285.5 -126v-262h-121zM268 524q0 -171 74 -273t205 -124
v815q-126 -24 -202.5 -130.5t-76.5 -270.5v-17z" />
    <glyph glyph-name="sterling" unicode="&#xa3;" horiz-adv-x="1220" 
d="M98 645v127h133q-36 155 -36 289q0 185 128.5 303.5t321.5 118.5q194 0 309 -104.5t129 -282.5h-172q-23 123 -83 182t-183 59q-119 0 -194.5 -76.5t-75.5 -201.5q0 -120 35 -287h436v-127h-408q31 -159 31 -270q0 -67 -27 -133q55 -13 179.5 -62t173.5 -49
q86 0 133 40.5t53 135.5h149q-9 -146 -91.5 -235.5t-223.5 -89.5q-61 0 -130.5 20t-121 44.5t-108.5 44.5t-95 20q-62 0 -95 -32.5t-38 -78.5h-149q3 37 17 74.5t38.5 74.5t65 64t90.5 37q24 60 24 127q0 95 -47 268h-168z" />
    <glyph glyph-name="yen" unicode="&#xa5;" horiz-adv-x="1179" 
d="M172 575v119h320l-435 770h193l358 -663l342 663h172l-409 -770h321v-119h-344v-159h344v-119h-344v-297h-174v297h-344v119h344v159h-344z" />
    <glyph glyph-name="brokenbar" unicode="&#xa6;" horiz-adv-x="532" 
d="M190 -303v911h138v-911h-138zM190 752v837h138v-837h-138z" />
    <glyph glyph-name="section" unicode="&#xa7;" horiz-adv-x="1103" 
d="M545 -281q-173 0 -277.5 88.5t-107.5 245.5h174q8 -93 56 -141.5t151 -48.5t156 51.5t53 132.5q0 83 -58 129.5t-231 89.5q-90 23 -154.5 50t-116.5 67.5t-78 97.5t-26 131q0 100 61.5 173t169.5 104q-63 44 -93.5 105.5t-30.5 154.5q0 142 109.5 238t254.5 96
q169 0 270 -84.5t105 -237.5h-172q-6 87 -51.5 132.5t-147.5 45.5t-153.5 -52t-51.5 -134q0 -83 55 -128.5t220 -86.5q75 -19 127.5 -37t105 -47t84 -64.5t51 -87t19.5 -116.5q0 -90 -60 -166t-165 -109q120 -88 120 -260q0 -138 -107 -235t-261 -97zM668 379
q182 45 182 192q0 84 -60.5 128t-195.5 79l-162 43q-81 -18 -129.5 -69t-48.5 -125q0 -78 61.5 -122.5t198.5 -82.5z" />
    <glyph glyph-name="dieresis" unicode="&#xa8;" horiz-adv-x="819" 
d="M217 1298q-44 0 -76 32.5t-32 76.5t32 76.5t76 32.5t76.5 -32.5t32.5 -76.5t-32.5 -76.5t-76.5 -32.5zM602 1298q-44 0 -76 32.5t-32 76.5t32 76.5t76 32.5t76.5 -32.5t32.5 -76.5t-32.5 -76.5t-76.5 -32.5z" />
    <glyph glyph-name="copyright" unicode="&#xa9;" horiz-adv-x="1728" 
d="M866 317q-185 0 -289 109.5t-104 296.5v16q0 182 110.5 295t282.5 113q144 0 239 -72.5t107 -210.5h-155q-25 160 -191 160q-107 0 -169 -75.5t-62 -209.5v-14q0 -135 60.5 -209t170.5 -74q86 0 140.5 43t66.5 127h148q-15 -144 -110.5 -219.5t-244.5 -75.5zM862 68
q130 0 249.5 49.5t209.5 135.5t143.5 212t53.5 270q0 190 -89 342.5t-238 236t-325 83.5q-178 0 -327.5 -84t-238.5 -237.5t-89 -344.5q0 -144 53.5 -269.5t143.5 -211t208 -134t246 -48.5zM862 -18q-205 0 -377 98t-272 270.5t-100 380.5q0 154 59 293.5t159 240t240 159.5
t295 59q157 0 296.5 -59t238.5 -159t157 -238t58 -292q0 -157 -59 -297t-159.5 -240t-240 -158t-295.5 -58z" />
    <glyph glyph-name="ordfeminine" unicode="&#xaa;" horiz-adv-x="858" 
d="M348 594q-126 0 -206.5 64t-80.5 190q0 72 35 125.5t96.5 83.5t137 44.5t166.5 14.5h118v53q0 96 -40.5 140.5t-133.5 44.5q-162 0 -184 -140h-158q8 91 59 153.5t125 89t167 26.5q325 0 325 -312v-561h-160v107q-93 -123 -266 -123zM377 719q105 0 171 50.5t66 141.5v95
h-114q-277 0 -277 -154q0 -66 36 -99.5t118 -33.5z" />
    <glyph glyph-name="guillemotleft" unicode="&#xab;" horiz-adv-x="1024" 
d="M387 170l-266 365l266 364h168l-256 -364l256 -365h-168zM752 170l-267 365l267 364h168l-256 -364l256 -365h-168z" />
    <glyph glyph-name="registered" unicode="&#xae;" horiz-adv-x="1052" 
d="M371 811v449h157q80 0 126 -34.5t46 -101.5v-2q0 -93 -92 -121l119 -190h-102l-109 174h-47v-174h-98zM469 1053h57q78 0 78 65v2q0 64 -78 64h-57v-131zM526 651q160 0 266.5 106.5t106.5 272.5q0 167 -105 273t-268 106t-267.5 -107t-104.5 -274q0 -166 106.5 -271.5
t265.5 -105.5zM526 578q-190 0 -322 129.5t-132 320.5q0 189 132 322t322 133q193 0 324 -131.5t131 -321.5q0 -191 -132 -321.5t-323 -130.5z" />
    <glyph glyph-name="macron" unicode="&#xaf;" horiz-adv-x="819" 
d="M141 1327v131h537v-131h-537z" />
    <glyph glyph-name="degree" unicode="&#xb0;" horiz-adv-x="874" 
d="M438 950q81 0 132 58.5t51 146.5q0 90 -51 149.5t-132 59.5q-83 0 -136.5 -59.5t-53.5 -149.5q0 -87 54 -146t136 -59zM438 831q-139 0 -237.5 95.5t-98.5 228.5q0 135 98.5 231.5t237.5 96.5q138 0 236 -96.5t98 -231.5q0 -132 -98 -228t-236 -96z" />
    <glyph glyph-name="plusminus" unicode="&#xb1;" horiz-adv-x="1062" 
d="M457 297v373h-383v143h383v373h149v-373h383v-143h-383v-373h-149zM74 0v143h915v-143h-915z" />
    <glyph glyph-name="twosuperior" unicode="&#xb2;" horiz-adv-x="585" 
d="M16 764v22l263 279q110 113 110 199q0 48 -26.5 75t-75.5 27q-106 0 -123 -135h-125q6 115 72.5 178.5t179.5 63.5q109 0 171 -56t62 -151q0 -118 -135 -250l-149 -148h290v-104h-514z" />
    <glyph glyph-name="threesuperior" unicode="&#xb3;" horiz-adv-x="636" 
d="M311 754q-125 0 -195 61t-73 166h125q14 -125 139 -125q64 0 96.5 29.5t32.5 81.5q0 110 -123 110h-53v97h51q115 0 115 100q0 43 -27.5 69.5t-79.5 26.5q-54 0 -87 -30t-39 -83h-125q6 96 74 156t180 60q109 0 172 -53.5t63 -135.5q0 -109 -117 -151q63 -14 100.5 -57.5
t37.5 -110.5q0 -98 -72 -154.5t-195 -56.5z" />
    <glyph glyph-name="acute" unicode="&#xb4;" horiz-adv-x="819" 
d="M330 1255l127 301h213l-213 -301h-127z" />
    <glyph glyph-name="paragraph" unicode="&#xb6;" horiz-adv-x="1204" 
d="M565 -205v914h-28q-202 0 -323.5 95t-121.5 275q0 126 59.5 214.5t158 129.5t227.5 41h475v-1669h-142v1553h-165v-1553h-140z" />
    <glyph glyph-name="periodcentered" unicode="&#xb7;" horiz-adv-x="577" 
d="M289 539q-54 0 -92.5 38t-38.5 93t38.5 93t92.5 38t92.5 -38t38.5 -93t-38.5 -93t-92.5 -38z" />
    <glyph glyph-name="cedilla" unicode="&#xb8;" horiz-adv-x="819" 
d="M426 -438q-88 0 -143.5 47.5t-61.5 124.5h111q7 -32 29.5 -53t58.5 -21q38 0 60 20.5t22 53.5q0 32 -20.5 50.5t-53.5 18.5q-30 0 -57 -16l-66 57l86 156h109l-60 -109q77 10 135 -33.5t58 -131.5q0 -79 -59 -121.5t-148 -42.5z" />
    <glyph glyph-name="onesuperior" unicode="&#xb9;" horiz-adv-x="473" 
d="M215 764v565l-166 -110v120l182 125h123v-700h-139z" />
    <glyph glyph-name="ordmasculine" unicode="&#xba;" horiz-adv-x="1009" 
d="M506 725q120 0 190 84t70 223v12q0 140 -70.5 224t-189.5 84q-121 0 -191.5 -84t-70.5 -224v-12q0 -141 70 -224t192 -83zM504 594q-186 0 -307 123t-121 313v12q0 195 121.5 318t308.5 123q186 0 307 -121.5t121 -314.5v-13q0 -196 -121 -318t-309 -122z" />
    <glyph glyph-name="guillemotright" unicode="&#xbb;" horiz-adv-x="1024" 
d="M104 170l256 365l-256 364h168l267 -364l-267 -365h-168zM469 170l256 365l-256 364h168l266 -364l-266 -365h-168z" />
    <glyph glyph-name="onequarter" unicode="&#xbc;" horiz-adv-x="1388" 
d="M221 764v565l-166 -110v120l183 125h122v-700h-139zM100 0l1039 1464h135l-1038 -1464h-136zM1118 0v141h-352v49l313 510h170v-458h92v-101h-92v-141h-131zM913 242h207v354z" />
    <glyph glyph-name="onehalf" unicode="&#xbd;" horiz-adv-x="1386" 
d="M221 764v565l-166 -110v120l183 125h122v-700h-139zM74 0l1038 1464h135l-1038 -1464h-135zM809 0v23l262 278q111 114 111 199q0 48 -27 75t-76 27q-106 0 -123 -135h-125q6 115 72.5 178.5t179.5 63.5q109 0 171.5 -56t62.5 -151q0 -118 -135 -250l-150 -148h291v-104
h-514z" />
    <glyph glyph-name="threequarters" unicode="&#xbe;" horiz-adv-x="1394" 
d="M317 754q-125 0 -195 61t-73 166h125q14 -125 139 -125q64 0 96.5 29.5t32.5 81.5q0 110 -123 110h-53v97h51q115 0 115 100q0 43 -27 69.5t-79 26.5q-54 0 -87.5 -30t-39.5 -83h-125q6 96 74 156t180 60q109 0 172 -53.5t63 -135.5q0 -109 -117 -151q63 -14 100.5 -57.5
t37.5 -110.5q0 -98 -72 -154.5t-195 -56.5zM174 0l1038 1464h136l-1039 -1464h-135zM1118 0v141h-352v49l313 510h170v-458h92v-101h-92v-141h-131zM913 242h207v354z" />
    <glyph glyph-name="questiondown" unicode="&#xbf;" horiz-adv-x="1001" 
d="M635 811v-102q0 -40 -7.5 -76.5t-26 -72t-32.5 -59.5t-46 -59t-47 -50l-52 -52t-58.5 -61t-45.5 -57t-35 -66t-11 -68q0 -95 55 -150t165 -55q115 0 188 72.5t84 194.5h160q-11 -182 -129.5 -295t-304.5 -113q-101 0 -178 28.5t-122 77.5t-67.5 108t-22.5 126q0 44 13 86
t28 71.5t48 68.5t52 57.5t60 58.5q45 43 69 68.5t54 65.5t43.5 80t13.5 85v88h152zM563 1235q54 0 92.5 -38t38.5 -93t-38.5 -93t-92.5 -38t-92.5 38t-38.5 93t38.5 93t92.5 38z" />
    <glyph glyph-name="Agrave" unicode="&#xc0;" horiz-adv-x="1380" 
d="M74 0l504 1464h233l496 -1464h-177l-143 422h-604l-141 -422h-168zM686 1317l-254 -754h508zM639 1579l-201 260h213l115 -260h-127z" />
    <glyph glyph-name="Aacute" unicode="&#xc1;" horiz-adv-x="1380" 
d="M74 0l504 1464h233l496 -1464h-177l-143 422h-604l-141 -422h-168zM686 1317l-254 -754h508zM614 1579l115 260h213l-201 -260h-127z" />
    <glyph glyph-name="Acircumflex" unicode="&#xc2;" horiz-adv-x="1380" 
d="M74 0l504 1464h233l496 -1464h-177l-143 422h-604l-141 -422h-168zM686 1317l-254 -754h508zM393 1579l221 260h154l219 -260h-125l-174 119l-174 -119h-121z" />
    <glyph glyph-name="Atilde" unicode="&#xc3;" horiz-adv-x="1380" 
d="M74 0l504 1464h233l496 -1464h-177l-143 422h-604l-141 -422h-168zM686 1317l-254 -754h508zM801 1585q-37 0 -80 22t-80 44t-61 22q-29 0 -51.5 -26t-30.5 -66h-123q12 108 69.5 173t137.5 65q37 0 79 -22t79 -44t61 -22q29 0 51.5 26t30.5 66h123q-12 -108 -69 -173
t-136 -65z" />
    <glyph glyph-name="Adieresis" unicode="&#xc4;" horiz-adv-x="1380" 
d="M74 0l504 1464h233l496 -1464h-177l-143 422h-604l-141 -422h-168zM686 1317l-254 -754h508zM481 1616q-44 0 -76 32t-32 76t32 76.5t76 32.5t76.5 -32.5t32.5 -76.5t-32.5 -76t-76.5 -32zM897 1616q-44 0 -76.5 32t-32.5 76t32.5 76.5t76.5 32.5t76.5 -32.5t32.5 -76.5
t-32.5 -76t-76.5 -32z" />
    <glyph glyph-name="Aring" unicode="&#xc5;" horiz-adv-x="1380" 
d="M74 0l504 1464h233l496 -1464h-177l-143 422h-604l-141 -422h-168zM686 1317l-254 -754h508zM690 1554q-91 0 -155 62.5t-64 150.5t64 150.5t155 62.5t155 -62.5t64 -150.5t-64 -150.5t-155 -62.5zM690 1649q47 0 78 33.5t31 84.5t-31 85t-78 34t-77.5 -34t-30.5 -85
t30.5 -84.5t77.5 -33.5z" />
    <glyph glyph-name="AE" unicode="&#xc6;" horiz-adv-x="1945" 
d="M59 0l758 1464h1008v-145h-676v-498h545v-145h-545v-531h713v-145h-891v424h-516l-215 -424h-181zM907 1319l-383 -756h447v756h-64z" />
    <glyph glyph-name="Ccedilla" unicode="&#xc7;" horiz-adv-x="1495" 
d="M780 -438q-88 0 -143.5 47.5t-61.5 124.5h111q7 -32 29.5 -53t58.5 -21q38 0 60 20.5t22 53.5q0 32 -20.5 50.5t-53.5 18.5q-30 0 -57 -16l-66 57l76 140q-290 20 -456 218t-166 521v16q0 214 88.5 385t246 267t353.5 96q156 0 282.5 -52.5t211.5 -162.5t100 -264h-176
q-28 170 -129.5 254t-286.5 84q-228 0 -367 -164.5t-139 -440.5v-16q0 -280 134 -439t370 -159q183 0 299 91t143 267h166q-36 -237 -184 -363.5t-381 -137.5l-49 -93q77 10 134.5 -33.5t57.5 -131.5q0 -79 -59 -121.5t-148 -42.5z" />
    <glyph glyph-name="Egrave" unicode="&#xc8;" horiz-adv-x="1159" 
d="M184 0v1464h854v-145h-676v-498h545v-145h-545v-531h713v-145h-891zM575 1579l-200 260h213l114 -260h-127z" />
    <glyph glyph-name="Eacute" unicode="&#xc9;" horiz-adv-x="1159" 
d="M184 0v1464h854v-145h-676v-498h545v-145h-545v-531h713v-145h-891zM551 1579l115 260h213l-201 -260h-127z" />
    <glyph glyph-name="Ecircumflex" unicode="&#xca;" horiz-adv-x="1159" 
d="M184 0v1464h854v-145h-676v-498h545v-145h-545v-531h713v-145h-891zM330 1579l221 260h154l219 -260h-125l-174 119l-174 -119h-121z" />
    <glyph glyph-name="Edieresis" unicode="&#xcb;" horiz-adv-x="1159" 
d="M184 0v1464h854v-145h-676v-498h545v-145h-545v-531h713v-145h-891zM418 1616q-44 0 -76.5 32t-32.5 76t32.5 76.5t76.5 32.5t76 -32.5t32 -76.5t-32 -76t-76 -32zM834 1616q-44 0 -76.5 32t-32.5 76t32.5 76.5t76.5 32.5t76 -32.5t32 -76.5t-32 -76t-76 -32z" />
    <glyph glyph-name="Igrave" unicode="&#xcc;" horiz-adv-x="567" 
d="M195 0v1464h178v-1464h-178zM231 1579l-200 260h213l114 -260h-127z" />
    <glyph glyph-name="Iacute" unicode="&#xcd;" horiz-adv-x="567" 
d="M195 0v1464h178v-1464h-178zM207 1579l115 260h213l-201 -260h-127z" />
    <glyph glyph-name="Icircumflex" unicode="&#xce;" horiz-adv-x="567" 
d="M195 0v1464h178v-1464h-178zM-14 1579l221 260h153l220 -260h-125l-174 119l-175 -119h-120z" />
    <glyph glyph-name="Idieresis" unicode="&#xcf;" horiz-adv-x="567" 
d="M195 0v1464h178v-1464h-178zM74 1616q-44 0 -76.5 32t-32.5 76t32.5 76.5t76.5 32.5t76 -32.5t32 -76.5t-32 -76t-76 -32zM489 1616q-44 0 -76 32t-32 76t32 76.5t76 32.5t76.5 -32.5t32.5 -76.5t-32.5 -76t-76.5 -32z" />
    <glyph glyph-name="Eth" unicode="&#xd0;" horiz-adv-x="1466" 
d="M70 666v137h155v661h387q184 0 327.5 -54.5t233 -152.5t135.5 -227.5t46 -284.5v-18q0 -123 -28 -231.5t-87.5 -200t-146.5 -157t-210.5 -102t-273.5 -36.5h-383v666h-155zM403 145h201q277 0 421 155t144 429v16q0 130 -32.5 233t-99.5 181t-177 120t-258 42h-199v-518
h424v-137h-424v-521z" />
    <glyph glyph-name="Ntilde" unicode="&#xd1;" horiz-adv-x="1482" 
d="M184 0v1464h232l712 -1210v1210h170v-1464h-204l-740 1255v-1255h-170zM872 1585q-37 0 -80 22t-80 44t-61 22q-29 0 -51.5 -26t-30.5 -66h-123q12 108 69.5 173t137.5 65q37 0 79 -22t79 -44t61 -22q29 0 51.5 26t30.5 66h123q-12 -108 -69 -173t-136 -65z" />
    <glyph glyph-name="Ograve" unicode="&#xd2;" horiz-adv-x="1660" 
d="M838 129q242 0 384 165.5t142 434.5v16q0 166 -61 299.5t-183 214t-286 80.5q-167 0 -289.5 -77t-185 -211.5t-62.5 -309.5v-16q0 -262 154.5 -429t386.5 -167zM838 -18q-159 0 -295 58.5t-230 158t-147 235.5t-53 289v16q0 155 52.5 291.5t146 236.5t229 158t293.5 58
t292.5 -58t226.5 -157.5t143.5 -235t51.5 -289.5v-16q0 -154 -51.5 -291t-143 -237t-225.5 -158.5t-290 -58.5zM778 1579l-200 260h213l114 -260h-127z" />
    <glyph glyph-name="Oacute" unicode="&#xd3;" horiz-adv-x="1660" 
d="M838 129q242 0 384 165.5t142 434.5v16q0 166 -61 299.5t-183 214t-286 80.5q-167 0 -289.5 -77t-185 -211.5t-62.5 -309.5v-16q0 -262 154.5 -429t386.5 -167zM838 -18q-159 0 -295 58.5t-230 158t-147 235.5t-53 289v16q0 155 52.5 291.5t146 236.5t229 158t293.5 58
t292.5 -58t226.5 -157.5t143.5 -235t51.5 -289.5v-16q0 -154 -51.5 -291t-143 -237t-225.5 -158.5t-290 -58.5zM754 1579l114 260h213l-200 -260h-127z" />
    <glyph glyph-name="Ocircumflex" unicode="&#xd4;" horiz-adv-x="1660" 
d="M838 129q242 0 384 165.5t142 434.5v16q0 166 -61 299.5t-183 214t-286 80.5q-167 0 -289.5 -77t-185 -211.5t-62.5 -309.5v-16q0 -262 154.5 -429t386.5 -167zM838 -18q-159 0 -295 58.5t-230 158t-147 235.5t-53 289v16q0 155 52.5 291.5t146 236.5t229 158t293.5 58
t292.5 -58t226.5 -157.5t143.5 -235t51.5 -289.5v-16q0 -154 -51.5 -291t-143 -237t-225.5 -158.5t-290 -58.5zM532 1579l222 260h153l219 -260h-125l-174 119l-174 -119h-121z" />
    <glyph glyph-name="Otilde" unicode="&#xd5;" horiz-adv-x="1660" 
d="M838 129q242 0 384 165.5t142 434.5v16q0 166 -61 299.5t-183 214t-286 80.5q-167 0 -289.5 -77t-185 -211.5t-62.5 -309.5v-16q0 -262 154.5 -429t386.5 -167zM838 -18q-159 0 -295 58.5t-230 158t-147 235.5t-53 289v16q0 155 52.5 291.5t146 236.5t229 158t293.5 58
t292.5 -58t226.5 -157.5t143.5 -235t51.5 -289.5v-16q0 -154 -51.5 -291t-143 -237t-225.5 -158.5t-290 -58.5zM940 1585q-37 0 -80 22t-80 44t-61 22q-29 0 -51.5 -26t-30.5 -66h-123q12 108 69.5 173t137.5 65q37 0 79 -22t79 -44t61 -22q29 0 51.5 26t30.5 66h123
q-12 -108 -69 -173t-136 -65z" />
    <glyph glyph-name="Odieresis" unicode="&#xd6;" horiz-adv-x="1660" 
d="M838 129q242 0 384 165.5t142 434.5v16q0 166 -61 299.5t-183 214t-286 80.5q-167 0 -289.5 -77t-185 -211.5t-62.5 -309.5v-16q0 -262 154.5 -429t386.5 -167zM838 -18q-159 0 -295 58.5t-230 158t-147 235.5t-53 289v16q0 155 52.5 291.5t146 236.5t229 158t293.5 58
t292.5 -58t226.5 -157.5t143.5 -235t51.5 -289.5v-16q0 -154 -51.5 -291t-143 -237t-225.5 -158.5t-290 -58.5zM621 1616q-44 0 -76.5 32t-32.5 76t32.5 76.5t76.5 32.5t76 -32.5t32 -76.5t-32 -76t-76 -32zM1036 1616q-44 0 -76 32t-32 76t32 76.5t76 32.5t76.5 -32.5
t32.5 -76.5t-32.5 -76t-76.5 -32z" />
    <glyph glyph-name="multiply" unicode="&#xd7;" horiz-adv-x="960" 
d="M164 268l-96 99l315 315l-315 315l96 99l315 -318l316 318l98 -99l-315 -315l315 -315l-98 -99l-316 318z" />
    <glyph glyph-name="Oslash" unicode="&#xd8;" horiz-adv-x="1660" 
d="M164 -68l-92 93l200 219q-159 201 -159 479v16q0 155 52.5 291.5t146 236.5t229 158t293.5 58q251 0 438 -144l166 181l92 -93l-162 -178q87 -99 133.5 -229t46.5 -277v-16q0 -154 -51.5 -291t-143 -237t-225.5 -158.5t-290 -58.5q-277 0 -476 168zM838 129
q242 0 384 165.5t142 434.5v16q0 229 -107 385l-786 -862q142 -139 367 -139zM297 725q0 -206 90 -354l782 856q-134 112 -335 112q-167 0 -289.5 -77t-185 -211.5t-62.5 -309.5v-16z" />
    <glyph glyph-name="Ugrave" unicode="&#xd9;" horiz-adv-x="1425" 
d="M698 -18q-252 0 -389 143.5t-137 409.5v929h178v-909q0 -228 83.5 -327t268.5 -99q92 0 157.5 21t115.5 71t75 139.5t25 221.5v882h178v-907q0 -274 -139 -424.5t-416 -150.5zM662 1579l-201 260h213l114 -260h-126z" />
    <glyph glyph-name="Uacute" unicode="&#xda;" horiz-adv-x="1425" 
d="M698 -18q-252 0 -389 143.5t-137 409.5v929h178v-909q0 -228 83.5 -327t268.5 -99q92 0 157.5 21t115.5 71t75 139.5t25 221.5v882h178v-907q0 -274 -139 -424.5t-416 -150.5zM637 1579l115 260h213l-201 -260h-127z" />
    <glyph glyph-name="Ucircumflex" unicode="&#xdb;" horiz-adv-x="1425" 
d="M698 -18q-252 0 -389 143.5t-137 409.5v929h178v-909q0 -228 83.5 -327t268.5 -99q92 0 157.5 21t115.5 71t75 139.5t25 221.5v882h178v-907q0 -274 -139 -424.5t-416 -150.5zM416 1579l221 260h154l219 -260h-125l-174 119l-174 -119h-121z" />
    <glyph glyph-name="Udieresis" unicode="&#xdc;" horiz-adv-x="1425" 
d="M698 -18q-252 0 -389 143.5t-137 409.5v929h178v-909q0 -228 83.5 -327t268.5 -99q92 0 157.5 21t115.5 71t75 139.5t25 221.5v882h178v-907q0 -274 -139 -424.5t-416 -150.5zM504 1616q-44 0 -76.5 32t-32.5 76t32.5 76.5t76.5 32.5t76 -32.5t32 -76.5t-32 -76t-76 -32z
M920 1616q-44 0 -76.5 32t-32.5 76t32.5 76.5t76.5 32.5t76 -32.5t32 -76.5t-32 -76t-76 -32z" />
    <glyph glyph-name="Yacute" unicode="&#xdd;" horiz-adv-x="1224" 
d="M537 0v639l-490 825h201l383 -680l368 680h179l-463 -827v-637h-178zM537 1579l114 260h213l-200 -260h-127z" />
    <glyph glyph-name="Thorn" unicode="&#xde;" horiz-adv-x="1189" 
d="M184 0v1464h178v-274h238q109 0 199 -23.5t161.5 -71.5t111.5 -131t40 -194v-8q0 -91 -26.5 -163.5t-73 -120.5t-112 -80t-140 -46t-160.5 -14h-238v-338h-178zM362 479h250q158 0 240 71.5t82 211.5v8q0 149 -82 213t-240 64h-250v-568z" />
    <glyph glyph-name="germandbls" unicode="&#xdf;" horiz-adv-x="1208" 
d="M686 -18q-105 0 -188 32v146q80 -37 180 -37q266 0 266 307v14q0 167 -109 265t-292 92v145q83 -2 144.5 21.5t95 64t49.5 86.5t16 96v9q0 109 -64.5 168t-185.5 59q-117 0 -186.5 -77t-69.5 -206v-1167h-170v1159q0 191 125.5 310.5t302.5 119.5q183 0 296.5 -101
t113.5 -265v-9q0 -103 -65 -197t-179 -132q159 -40 256.5 -160t97.5 -279v-12q0 -101 -24 -180t-64.5 -129t-97.5 -83t-118 -46.5t-130 -13.5z" />
    <glyph glyph-name="agrave" unicode="&#xe0;" horiz-adv-x="1105" 
d="M440 -18q-103 0 -181 32t-126.5 104.5t-48.5 178.5q0 89 44.5 155.5t122 104t170 55t200.5 17.5h153v78q0 128 -53 184.5t-176 56.5q-223 0 -246 -192h-170q8 88 46 154.5t97.5 104.5t129.5 56.5t151 18.5q65 0 120 -11t106 -38t86.5 -69.5t57 -110t21.5 -154.5v-707
h-170v135q-62 -78 -140.5 -115.5t-193.5 -37.5zM457 117q139 0 228 68.5t89 189.5v133h-147q-373 0 -373 -211q0 -88 47.5 -134t155.5 -46zM504 1255l-213 301h213l127 -301h-127z" />
    <glyph glyph-name="aacute" unicode="&#xe1;" horiz-adv-x="1105" 
d="M440 -18q-103 0 -181 32t-126.5 104.5t-48.5 178.5q0 89 44.5 155.5t122 104t170 55t200.5 17.5h153v78q0 128 -53 184.5t-176 56.5q-223 0 -246 -192h-170q8 88 46 154.5t97.5 104.5t129.5 56.5t151 18.5q65 0 120 -11t106 -38t86.5 -69.5t57 -110t21.5 -154.5v-707
h-170v135q-62 -78 -140.5 -115.5t-193.5 -37.5zM457 117q139 0 228 68.5t89 189.5v133h-147q-373 0 -373 -211q0 -88 47.5 -134t155.5 -46zM479 1255l127 301h213l-213 -301h-127z" />
    <glyph glyph-name="acircumflex" unicode="&#xe2;" horiz-adv-x="1105" 
d="M440 -18q-103 0 -181 32t-126.5 104.5t-48.5 178.5q0 89 44.5 155.5t122 104t170 55t200.5 17.5h153v78q0 128 -53 184.5t-176 56.5q-223 0 -246 -192h-170q8 88 46 154.5t97.5 104.5t129.5 56.5t151 18.5q65 0 120 -11t106 -38t86.5 -69.5t57 -110t21.5 -154.5v-707
h-170v135q-62 -78 -140.5 -115.5t-193.5 -37.5zM457 117q139 0 228 68.5t89 189.5v133h-147q-373 0 -373 -211q0 -88 47.5 -134t155.5 -46zM236 1255l221 295h153l219 -295h-124l-175 154l-174 -154h-120z" />
    <glyph glyph-name="atilde" unicode="&#xe3;" horiz-adv-x="1105" 
d="M440 -18q-103 0 -181 32t-126.5 104.5t-48.5 178.5q0 89 44.5 155.5t122 104t170 55t200.5 17.5h153v78q0 128 -53 184.5t-176 56.5q-223 0 -246 -192h-170q8 88 46 154.5t97.5 104.5t129.5 56.5t151 18.5q65 0 120 -11t106 -38t86.5 -69.5t57 -110t21.5 -154.5v-707
h-170v135q-62 -78 -140.5 -115.5t-193.5 -37.5zM457 117q139 0 228 68.5t89 189.5v133h-147q-373 0 -373 -211q0 -88 47.5 -134t155.5 -46zM666 1268q-37 0 -80 22t-80.5 44t-61.5 22q-29 0 -51.5 -26t-30.5 -66h-122q12 108 69 172.5t137 64.5q37 0 79.5 -22t79.5 -44
t61 -22q29 0 51.5 26t30.5 66h122q-12 -108 -68.5 -172.5t-135.5 -64.5z" />
    <glyph glyph-name="adieresis" unicode="&#xe4;" horiz-adv-x="1105" 
d="M440 -18q-103 0 -181 32t-126.5 104.5t-48.5 178.5q0 89 44.5 155.5t122 104t170 55t200.5 17.5h153v78q0 128 -53 184.5t-176 56.5q-223 0 -246 -192h-170q8 88 46 154.5t97.5 104.5t129.5 56.5t151 18.5q65 0 120 -11t106 -38t86.5 -69.5t57 -110t21.5 -154.5v-707
h-170v135q-62 -78 -140.5 -115.5t-193.5 -37.5zM457 117q139 0 228 68.5t89 189.5v133h-147q-373 0 -373 -211q0 -88 47.5 -134t155.5 -46zM362 1298q-44 0 -76 32.5t-32 76.5t32 76.5t76 32.5t76.5 -32.5t32.5 -76.5t-32.5 -76.5t-76.5 -32.5zM748 1298q-44 0 -76.5 32.5
t-32.5 76.5t32.5 76.5t76.5 32.5t76 -32.5t32 -76.5t-32 -76.5t-76 -32.5z" />
    <glyph glyph-name="aring" unicode="&#xe5;" horiz-adv-x="1105" 
d="M440 -18q-103 0 -181 32t-126.5 104.5t-48.5 178.5q0 89 44.5 155.5t122 104t170 55t200.5 17.5h153v78q0 128 -53 184.5t-176 56.5q-223 0 -246 -192h-170q8 88 46 154.5t97.5 104.5t129.5 56.5t151 18.5q65 0 120 -11t106 -38t86.5 -69.5t57 -110t21.5 -154.5v-707
h-170v135q-62 -78 -140.5 -115.5t-193.5 -37.5zM457 117q139 0 228 68.5t89 189.5v133h-147q-373 0 -373 -211q0 -88 47.5 -134t155.5 -46zM555 1319q47 0 78 34t31 85t-31 84.5t-78 33.5t-78 -33.5t-31 -84.5t31 -85t78 -34zM555 1225q-91 0 -155 62.5t-64 150.5t64 150.5
t155 62.5t155 -62.5t64 -150.5t-64 -150.5t-155 -62.5z" />
    <glyph glyph-name="ae" unicode="&#xe6;" horiz-adv-x="1802" 
d="M1262 -18q-134 0 -238 58t-166 163q-74 -116 -172.5 -168.5t-245.5 -52.5q-103 0 -181 32t-126.5 104.5t-48.5 178.5q0 90 43.5 157.5t119.5 106t167.5 56.5t199.5 18h160v70q0 127 -55 185t-174 58q-223 0 -246 -192h-170q8 88 46 154.5t97.5 104.5t129.5 56.5t151 18.5
q255 0 336 -183q130 183 360 183q74 0 140 -18t126 -58.5t104 -101t69.5 -151.5t25.5 -204v-51h-776q6 -186 88 -284.5t238 -98.5q238 0 272 186h170q-27 -158 -146.5 -242.5t-297.5 -84.5zM457 117q139 0 228 68.5t89 189.5v131h-153q-367 0 -367 -209q0 -88 47.5 -134
t155.5 -46zM944 635h596q-12 164 -85.5 238.5t-205.5 74.5q-124 0 -204.5 -83.5t-100.5 -229.5z" />
    <glyph glyph-name="ccedilla" unicode="&#xe7;" horiz-adv-x="1167" 
d="M586 -438q-88 0 -143.5 47.5t-61.5 124.5h111q7 -32 29.5 -53t58.5 -21q38 0 60 20.5t22 53.5q0 32 -20.5 50.5t-53.5 18.5q-31 0 -58 -16l-65 57l78 142q-200 24 -325.5 168.5t-125.5 369.5v17q0 120 41 223.5t111 174.5t165.5 111t202.5 40q87 0 163 -21t140.5 -64
t107 -117t54.5 -173h-168q-19 121 -98.5 177t-198.5 56q-150 0 -247 -111t-97 -296v-17q0 -192 95.5 -296.5t254.5 -104.5q120 0 207.5 68.5t100.5 193.5h157q-17 -168 -136 -279.5t-298 -121.5l-49 -93q77 10 135 -33.5t58 -131.5q0 -79 -59 -121.5t-148 -42.5z" />
    <glyph glyph-name="egrave" unicode="&#xe8;" horiz-adv-x="1163" 
d="M610 -18q-229 0 -373.5 148.5t-144.5 393.5v17q0 243 140.5 396t361.5 153q76 0 145 -18.5t131 -59.5t107 -101.5t71.5 -151t26.5 -202.5v-55h-807q6 -184 93.5 -281.5t250.5 -97.5q251 0 285 186h170q-27 -158 -149.5 -242.5t-307.5 -84.5zM274 639h627
q-22 309 -307 309q-129 0 -213.5 -82.5t-106.5 -226.5zM543 1255l-213 301h213l127 -301h-127z" />
    <glyph glyph-name="eacute" unicode="&#xe9;" horiz-adv-x="1163" 
d="M610 -18q-229 0 -373.5 148.5t-144.5 393.5v17q0 243 140.5 396t361.5 153q76 0 145 -18.5t131 -59.5t107 -101.5t71.5 -151t26.5 -202.5v-55h-807q6 -184 93.5 -281.5t250.5 -97.5q251 0 285 186h170q-27 -158 -149.5 -242.5t-307.5 -84.5zM274 639h627
q-22 309 -307 309q-129 0 -213.5 -82.5t-106.5 -226.5zM518 1255l127 301h213l-213 -301h-127z" />
    <glyph glyph-name="ecircumflex" unicode="&#xea;" horiz-adv-x="1163" 
d="M610 -18q-229 0 -373.5 148.5t-144.5 393.5v17q0 243 140.5 396t361.5 153q76 0 145 -18.5t131 -59.5t107 -101.5t71.5 -151t26.5 -202.5v-55h-807q6 -184 93.5 -281.5t250.5 -97.5q251 0 285 186h170q-27 -158 -149.5 -242.5t-307.5 -84.5zM274 639h627
q-22 309 -307 309q-129 0 -213.5 -82.5t-106.5 -226.5zM297 1255l221 295h154l219 -295h-125l-174 154l-174 -154h-121z" />
    <glyph glyph-name="edieresis" unicode="&#xeb;" horiz-adv-x="1163" 
d="M610 -18q-229 0 -373.5 148.5t-144.5 393.5v17q0 243 140.5 396t361.5 153q76 0 145 -18.5t131 -59.5t107 -101.5t71.5 -151t26.5 -202.5v-55h-807q6 -184 93.5 -281.5t250.5 -97.5q251 0 285 186h170q-27 -158 -149.5 -242.5t-307.5 -84.5zM274 639h627
q-22 309 -307 309q-129 0 -213.5 -82.5t-106.5 -226.5zM401 1298q-44 0 -76 32.5t-32 76.5t32 76.5t76 32.5t76.5 -32.5t32.5 -76.5t-32.5 -76.5t-76.5 -32.5zM786 1298q-44 0 -76 32.5t-32 76.5t32 76.5t76 32.5t76.5 -32.5t32.5 -76.5t-32.5 -76.5t-76.5 -32.5z" />
    <glyph glyph-name="igrave" unicode="&#xec;" horiz-adv-x="522" 
d="M176 0v1071h170v-1071h-170zM209 1255l-213 301h213l127 -301h-127z" />
    <glyph glyph-name="iacute" unicode="&#xed;" horiz-adv-x="522" 
d="M176 0v1071h170v-1071h-170zM184 1255l127 301h213l-213 -301h-127z" />
    <glyph glyph-name="icircumflex" unicode="&#xee;" horiz-adv-x="522" 
d="M176 0v1071h170v-1071h-170zM-37 1255l221 295h154l219 -295h-125l-174 154l-174 -154h-121z" />
    <glyph glyph-name="idieresis" unicode="&#xef;" horiz-adv-x="522" 
d="M76 1298q-44 0 -76.5 32.5t-32.5 76.5t32.5 76.5t76.5 32.5t76 -32.5t32 -76.5t-32 -76.5t-76 -32.5zM444 1298q-44 0 -76 32.5t-32 76.5t32 76.5t76 32.5t76.5 -32.5t32.5 -76.5t-32.5 -76.5t-76.5 -32.5zM176 0v1071h170v-1071h-170z" />
    <glyph glyph-name="eth" unicode="&#xf0;" horiz-adv-x="1236" 
d="M379 1174l-60 98l199 117q-108 95 -254 194h219q97 -55 172 -113l170 101l60 -101l-137 -79q81 -75 148.5 -160t125.5 -187.5t90.5 -221.5t32.5 -240v-45q0 -242 -150 -398.5t-379 -156.5q-228 0 -376 154.5t-148 389.5v17q0 118 39.5 221t106 174t155.5 111.5t187 40.5
q189 0 309 -148q-94 186 -281 367zM618 123q160 0 255.5 110.5t95.5 292.5v15q0 186 -94 296.5t-254 110.5q-161 0 -257 -110t-96 -295v-17q0 -184 94 -293.5t256 -109.5z" />
    <glyph glyph-name="ntilde" unicode="&#xf1;" horiz-adv-x="1224" 
d="M172 0v1071h170v-170q40 81 129.5 135t214.5 54q175 0 276 -105t101 -328v-657h-170v670q0 141 -61.5 206.5t-190.5 65.5q-126 0 -212.5 -77.5t-86.5 -215.5v-649h-170zM721 1268q-37 0 -80 22t-80 44t-61 22q-29 0 -51.5 -26t-30.5 -66h-123q12 108 69.5 172.5
t137.5 64.5q37 0 79 -22t79 -44t61 -22q29 0 51.5 26t30.5 66h123q-12 -107 -69 -172t-136 -65z" />
    <glyph glyph-name="ograve" unicode="&#xf2;" horiz-adv-x="1236" 
d="M618 123q160 0 255.5 110.5t95.5 292.5v15q0 186 -95.5 296.5t-255.5 110.5q-161 0 -255.5 -110t-94.5 -295v-17q0 -184 94 -293.5t256 -109.5zM616 -18q-228 0 -376 154.5t-148 389.5v17q0 240 149 393.5t377 153.5q229 0 378 -152.5t149 -392.5v-17
q0 -241 -149.5 -393.5t-379.5 -152.5zM567 1255l-213 301h213l127 -301h-127z" />
    <glyph glyph-name="oacute" unicode="&#xf3;" horiz-adv-x="1236" 
d="M618 123q160 0 255.5 110.5t95.5 292.5v15q0 186 -95.5 296.5t-255.5 110.5q-161 0 -255.5 -110t-94.5 -295v-17q0 -184 94 -293.5t256 -109.5zM616 -18q-228 0 -376 154.5t-148 389.5v17q0 240 149 393.5t377 153.5q229 0 378 -152.5t149 -392.5v-17
q0 -241 -149.5 -393.5t-379.5 -152.5zM543 1255l127 301h213l-213 -301h-127z" />
    <glyph glyph-name="ocircumflex" unicode="&#xf4;" horiz-adv-x="1236" 
d="M618 123q160 0 255.5 110.5t95.5 292.5v15q0 186 -95.5 296.5t-255.5 110.5q-161 0 -255.5 -110t-94.5 -295v-17q0 -184 94 -293.5t256 -109.5zM616 -18q-228 0 -376 154.5t-148 389.5v17q0 240 149 393.5t377 153.5q229 0 378 -152.5t149 -392.5v-17
q0 -241 -149.5 -393.5t-379.5 -152.5zM322 1255l221 295h153l219 -295h-124l-175 154l-174 -154h-120z" />
    <glyph glyph-name="otilde" unicode="&#xf5;" horiz-adv-x="1236" 
d="M618 123q160 0 255.5 110.5t95.5 292.5v15q0 186 -95.5 296.5t-255.5 110.5q-161 0 -255.5 -110t-94.5 -295v-17q0 -184 94 -293.5t256 -109.5zM616 -18q-228 0 -376 154.5t-148 389.5v17q0 240 149 393.5t377 153.5q229 0 378 -152.5t149 -392.5v-17
q0 -241 -149.5 -393.5t-379.5 -152.5zM729 1268q-37 0 -80 22t-80 44t-61 22q-29 0 -51.5 -26t-30.5 -66h-123q12 108 69.5 172.5t137.5 64.5q37 0 79 -22t79 -44t61 -22q29 0 51.5 26t30.5 66h123q-12 -107 -69 -172t-136 -65z" />
    <glyph glyph-name="odieresis" unicode="&#xf6;" horiz-adv-x="1236" 
d="M618 123q160 0 255.5 110.5t95.5 292.5v15q0 186 -95.5 296.5t-255.5 110.5q-161 0 -255.5 -110t-94.5 -295v-17q0 -184 94 -293.5t256 -109.5zM616 -18q-228 0 -376 154.5t-148 389.5v17q0 240 149 393.5t377 153.5q229 0 378 -152.5t149 -392.5v-17
q0 -241 -149.5 -393.5t-379.5 -152.5zM426 1298q-44 0 -76.5 32.5t-32.5 76.5t32.5 76.5t76.5 32.5t76.5 -32.5t32.5 -76.5t-32.5 -76.5t-76.5 -32.5zM811 1298q-44 0 -76.5 32.5t-32.5 76.5t32.5 76.5t76.5 32.5t76.5 -32.5t32.5 -76.5t-32.5 -76.5t-76.5 -32.5z" />
    <glyph glyph-name="divide" unicode="&#xf7;" horiz-adv-x="1062" 
d="M530 182q-54 0 -92.5 38t-38.5 93t38.5 93t92.5 38t93 -38t39 -93t-39 -93t-93 -38zM74 629v143h915v-143h-915zM530 956q-54 0 -92.5 38t-38.5 93t38.5 93.5t92.5 38.5t93 -38.5t39 -93.5t-39 -93t-93 -38z" />
    <glyph glyph-name="oslash" unicode="&#xf8;" horiz-adv-x="1236" 
d="M137 -76l-90 78l158 174q-113 144 -113 350v17q0 240 149 393.5t377 153.5q186 0 320 -103l139 152l90 -78l-143 -158q121 -150 121 -358v-17q0 -241 -149.5 -393.5t-379.5 -152.5q-189 0 -327 110zM618 123q160 0 255.5 110.5t95.5 292.5v15q0 133 -56 239l-524 -575
q91 -82 229 -82zM268 526q0 -133 49 -227l519 573q-88 76 -218 76q-161 0 -255.5 -110t-94.5 -295v-17z" />
    <glyph glyph-name="ugrave" unicode="&#xf9;" horiz-adv-x="1216" 
d="M535 -18q-170 0 -271.5 100t-101.5 311v678h170v-670q0 -140 60.5 -206t187.5 -66q122 0 208 77.5t86 215.5v649h170v-1071h-170v170q-40 -81 -128.5 -134.5t-210.5 -53.5zM557 1255l-213 301h213l127 -301h-127z" />
    <glyph glyph-name="uacute" unicode="&#xfa;" horiz-adv-x="1216" 
d="M535 -18q-170 0 -271.5 100t-101.5 311v678h170v-670q0 -140 60.5 -206t187.5 -66q122 0 208 77.5t86 215.5v649h170v-1071h-170v170q-40 -81 -128.5 -134.5t-210.5 -53.5zM532 1255l127 301h213l-213 -301h-127z" />
    <glyph glyph-name="ucircumflex" unicode="&#xfb;" horiz-adv-x="1216" 
d="M535 -18q-170 0 -271.5 100t-101.5 311v678h170v-670q0 -140 60.5 -206t187.5 -66q122 0 208 77.5t86 215.5v649h170v-1071h-170v170q-40 -81 -128.5 -134.5t-210.5 -53.5zM311 1255l221 295h154l219 -295h-125l-174 154l-174 -154h-121z" />
    <glyph glyph-name="udieresis" unicode="&#xfc;" horiz-adv-x="1216" 
d="M535 -18q-170 0 -271.5 100t-101.5 311v678h170v-670q0 -140 60.5 -206t187.5 -66q122 0 208 77.5t86 215.5v649h170v-1071h-170v170q-40 -81 -128.5 -134.5t-210.5 -53.5zM416 1298q-44 0 -76.5 32.5t-32.5 76.5t32.5 76.5t76.5 32.5t76 -32.5t32 -76.5t-32 -76.5
t-76 -32.5zM801 1298q-44 0 -76.5 32.5t-32.5 76.5t32.5 76.5t76.5 32.5t76 -32.5t32 -76.5t-32 -76.5t-76 -32.5z" />
    <glyph glyph-name="yacute" unicode="&#xfd;" horiz-adv-x="1083" 
d="M268 -373l203 484l-420 960h182l328 -768l297 768h174l-592 -1444h-172zM481 1255l127 301h213l-213 -301h-127z" />
    <glyph glyph-name="thorn" unicode="&#xfe;" horiz-adv-x="1284" 
d="M172 -373v1956h170v-692q48 82 149.5 140.5t213.5 58.5q215 0 351 -146.5t136 -392.5v-16q0 -247 -133.5 -400t-353.5 -153q-125 0 -219.5 54.5t-143.5 139.5v-549h-170zM688 123q159 0 243.5 104t84.5 299v17q0 194 -94 299.5t-236 105.5q-156 0 -253 -103.5t-97 -301.5
v-17q0 -199 95 -301t257 -102z" />
    <glyph glyph-name="ydieresis" unicode="&#xff;" horiz-adv-x="1083" 
d="M268 -373l203 484l-420 960h182l328 -768l297 768h174l-592 -1444h-172zM365 1298q-44 0 -76.5 32.5t-32.5 76.5t32.5 76.5t76.5 32.5t76 -32.5t32 -76.5t-32 -76.5t-76 -32.5zM750 1298q-44 0 -76.5 32.5t-32.5 76.5t32.5 76.5t76.5 32.5t76 -32.5t32 -76.5t-32 -76.5
t-76 -32.5z" />
    <glyph glyph-name="Amacron" unicode="&#x100;" horiz-adv-x="1380" 
d="M74 0l504 1464h233l496 -1464h-177l-143 422h-604l-141 -422h-168zM686 1317l-254 -754h508zM418 1610v131h545v-131h-545z" />
    <glyph glyph-name="amacron" unicode="&#x101;" horiz-adv-x="1105" 
d="M440 -18q-103 0 -181 32t-126.5 104.5t-48.5 178.5q0 89 44.5 155.5t122 104t170 55t200.5 17.5h153v78q0 128 -53 184.5t-176 56.5q-223 0 -246 -192h-170q8 88 46 154.5t97.5 104.5t129.5 56.5t151 18.5q65 0 120 -11t106 -38t86.5 -69.5t57 -110t21.5 -154.5v-707
h-170v135q-62 -78 -140.5 -115.5t-193.5 -37.5zM457 117q139 0 228 68.5t89 189.5v133h-147q-373 0 -373 -211q0 -88 47.5 -134t155.5 -46zM287 1327v131h536v-131h-536z" />
    <glyph glyph-name="Abreve" unicode="&#x102;" horiz-adv-x="1380" 
d="M74 0l504 1464h233l496 -1464h-177l-143 422h-604l-141 -422h-168zM686 1317l-254 -754h508zM686 1571q-110 0 -187 76.5t-83 193.5h135q23 -131 135 -131q122 0 148 131h131q-6 -116 -87 -193t-192 -77z" />
    <glyph glyph-name="abreve" unicode="&#x103;" horiz-adv-x="1105" 
d="M440 -18q-103 0 -181 32t-126.5 104.5t-48.5 178.5q0 89 44.5 155.5t122 104t170 55t200.5 17.5h153v78q0 128 -53 184.5t-176 56.5q-223 0 -246 -192h-170q8 88 46 154.5t97.5 104.5t129.5 56.5t151 18.5q65 0 120 -11t106 -38t86.5 -69.5t57 -110t21.5 -154.5v-707
h-170v135q-62 -78 -140.5 -115.5t-193.5 -37.5zM457 117q139 0 228 68.5t89 189.5v133h-147q-373 0 -373 -211q0 -88 47.5 -134t155.5 -46zM551 1268q-110 0 -187 76.5t-83 193.5h135q23 -131 135 -131q121 0 147 131h131q-6 -116 -86.5 -193t-191.5 -77z" />
    <glyph glyph-name="Aogonek" unicode="&#x104;" horiz-adv-x="1380" 
d="M1198 -373q-96 0 -154.5 44t-58.5 120q0 60 41.5 114.5t106.5 88.5l-146 428h-604l-141 -422h-168l504 1464h233l494 -1458q-84 -49 -121 -92t-37 -90q0 -74 78 -74q61 0 106 23v-121q-63 -25 -133 -25zM686 1317l-254 -754h508z" />
    <glyph glyph-name="aogonek" unicode="&#x105;" horiz-adv-x="1105" 
d="M834 -373q-96 0 -154.5 44t-58.5 120q0 62 42.5 117t110.5 90v137q-62 -78 -140.5 -115.5t-193.5 -37.5q-103 0 -181 32t-126.5 104.5t-48.5 178.5q0 89 44.5 155.5t122 104t170 55t200.5 17.5h153v78q0 128 -53 184.5t-176 56.5q-223 0 -246 -192h-170q8 88 46 154.5
t97.5 104.5t129.5 56.5t151 18.5q65 0 120 -11t106 -38t86.5 -69.5t57 -110t21.5 -154.5v-699q-162 -92 -162 -184q0 -74 78 -74q62 0 107 23v-121q-63 -25 -133 -25zM457 117q139 0 228 68.5t89 189.5v133h-147q-373 0 -373 -211q0 -88 47.5 -134t155.5 -46z" />
    <glyph glyph-name="Cacute" unicode="&#x106;" horiz-adv-x="1495" 
d="M797 -18q-317 0 -500.5 200.5t-183.5 540.5v16q0 214 88.5 385t246 267t353.5 96q156 0 282.5 -52.5t211.5 -162.5t100 -264h-176q-28 170 -129.5 254t-286.5 84q-228 0 -367 -164.5t-139 -440.5v-16q0 -280 134 -439t370 -159q183 0 299 91t143 267h166
q-37 -248 -198.5 -375.5t-413.5 -127.5zM729 1579l115 260h213l-201 -260h-127z" />
    <glyph glyph-name="cacute" unicode="&#x107;" horiz-adv-x="1167" 
d="M616 -18q-228 0 -376 148.5t-148 393.5v17q0 120 41 223.5t111 174.5t165.5 111t202.5 40q87 0 163 -21t140.5 -64t107 -117t54.5 -173h-168q-19 121 -98.5 177t-198.5 56q-150 0 -247 -111t-97 -296v-17q0 -192 95.5 -296.5t254.5 -104.5q120 0 207.5 68.5t100.5 193.5
h157q-17 -176 -146.5 -289.5t-320.5 -113.5zM535 1255l127 301h212l-212 -301h-127z" />
    <glyph glyph-name="Ccircumflex" unicode="&#x108;" horiz-adv-x="1495" 
d="M797 -18q-317 0 -500.5 200.5t-183.5 540.5v16q0 214 88.5 385t246 267t353.5 96q156 0 282.5 -52.5t211.5 -162.5t100 -264h-176q-28 170 -129.5 254t-286.5 84q-228 0 -367 -164.5t-139 -440.5v-16q0 -280 134 -439t370 -159q183 0 299 91t143 267h166
q-37 -248 -198.5 -375.5t-413.5 -127.5zM508 1579l221 260h154l219 -260h-125l-174 119l-174 -119h-121z" />
    <glyph glyph-name="ccircumflex" unicode="&#x109;" horiz-adv-x="1167" 
d="M616 -18q-228 0 -376 148.5t-148 393.5v17q0 120 41 223.5t111 174.5t165.5 111t202.5 40q87 0 163 -21t140.5 -64t107 -117t54.5 -173h-168q-19 121 -98.5 177t-198.5 56q-150 0 -247 -111t-97 -296v-17q0 -192 95.5 -296.5t254.5 -104.5q120 0 207.5 68.5t100.5 193.5
h157q-17 -176 -146.5 -289.5t-320.5 -113.5zM313 1255l222 295h153l219 -295h-125l-174 154l-174 -154h-121z" />
    <glyph glyph-name="Cdotaccent" unicode="&#x10a;" horiz-adv-x="1495" 
d="M797 -18q-317 0 -500.5 200.5t-183.5 540.5v16q0 214 88.5 385t246 267t353.5 96q156 0 282.5 -52.5t211.5 -162.5t100 -264h-176q-28 170 -129.5 254t-286.5 84q-228 0 -367 -164.5t-139 -440.5v-16q0 -280 134 -439t370 -159q183 0 299 91t143 267h166
q-37 -248 -198.5 -375.5t-413.5 -127.5zM797 1612q-46 0 -79.5 33t-33.5 79t33.5 79.5t79.5 33.5t79 -33.5t33 -79.5t-33 -79t-79 -33z" />
    <glyph glyph-name="cdotaccent" unicode="&#x10b;" horiz-adv-x="1167" 
d="M616 -18q-228 0 -376 148.5t-148 393.5v17q0 120 41 223.5t111 174.5t165.5 111t202.5 40q87 0 163 -21t140.5 -64t107 -117t54.5 -173h-168q-19 121 -98.5 177t-198.5 56q-150 0 -247 -111t-97 -296v-17q0 -192 95.5 -296.5t254.5 -104.5q120 0 207.5 68.5t100.5 193.5
h157q-17 -176 -146.5 -289.5t-320.5 -113.5zM610 1294q-46 0 -79 33.5t-33 79.5t33 79.5t79 33.5t79.5 -33.5t33.5 -79.5t-33.5 -79.5t-79.5 -33.5z" />
    <glyph glyph-name="Ccaron" unicode="&#x10c;" horiz-adv-x="1495" 
d="M797 -18q-317 0 -500.5 200.5t-183.5 540.5v16q0 214 88.5 385t246 267t353.5 96q156 0 282.5 -52.5t211.5 -162.5t100 -264h-176q-28 170 -129.5 254t-286.5 84q-228 0 -367 -164.5t-139 -440.5v-16q0 -280 134 -439t370 -159q183 0 299 91t143 267h166
q-37 -248 -198.5 -375.5t-413.5 -127.5zM727 1579l-219 260h125l174 -119l174 119h121l-221 -260h-154z" />
    <glyph glyph-name="ccaron" unicode="&#x10d;" horiz-adv-x="1167" 
d="M616 -18q-228 0 -376 148.5t-148 393.5v17q0 120 41 223.5t111 174.5t165.5 111t202.5 40q87 0 163 -21t140.5 -64t107 -117t54.5 -173h-168q-19 121 -98.5 177t-198.5 56q-150 0 -247 -111t-97 -296v-17q0 -192 95.5 -296.5t254.5 -104.5q120 0 207.5 68.5t100.5 193.5
h157q-17 -176 -146.5 -289.5t-320.5 -113.5zM532 1255l-219 295h125l174 -153l174 153h121l-221 -295h-154z" />
    <glyph glyph-name="Dcaron" unicode="&#x10e;" horiz-adv-x="1425" 
d="M362 145h201q277 0 421 155t144 429v16q0 130 -32.5 233t-99.5 181t-177 120t-258 42h-199v-1176zM184 0v1464h387q184 0 327.5 -54.5t233 -152.5t135.5 -227.5t46 -284.5v-18q0 -123 -28 -231.5t-87.5 -200t-146.5 -157t-210.5 -102t-273.5 -36.5h-383zM569 1579
l-219 260h125l174 -119l174 119h121l-221 -260h-154z" />
    <glyph glyph-name="dcaron" unicode="&#x10f;" horiz-adv-x="1284" 
d="M575 -18q-215 0 -349 143t-134 389v16q0 246 139.5 403t360.5 157q125 0 212.5 -52.5t137.5 -138.5v684h170v-1583h-170v184q-48 -82 -151.5 -142t-215.5 -60zM594 123q157 0 255.5 104t98.5 301v17q0 201 -89.5 302t-250.5 101q-160 0 -250 -107.5t-90 -301.5v-17
q0 -194 91.5 -296.5t234.5 -102.5zM1210 1225l25 358h192l-98 -358h-119z" />
    <glyph glyph-name="Dcroat" unicode="&#x110;" horiz-adv-x="1466" 
d="M70 666v137h155v661h387q184 0 327.5 -54.5t233 -152.5t135.5 -227.5t46 -284.5v-18q0 -123 -28 -231.5t-87.5 -200t-146.5 -157t-210.5 -102t-273.5 -36.5h-383v666h-155zM403 145h201q277 0 421 155t144 429v16q0 130 -32.5 233t-99.5 181t-177 120t-258 42h-199v-518
h424v-137h-424v-521z" />
    <glyph glyph-name="dcroat" unicode="&#x111;" horiz-adv-x="1284" 
d="M578 1260v124h364v199h170v-199h154v-124h-154v-1260h-170v184q-48 -82 -151.5 -142t-215.5 -60q-215 0 -349 143t-134 389v16q0 246 139.5 403t360.5 157q125 0 212.5 -52.5t137.5 -138.5v361h-364zM594 123q157 0 255.5 104t98.5 301v17q0 201 -89.5 302t-250.5 101
q-160 0 -250 -107.5t-90 -301.5v-17q0 -194 91.5 -296.5t234.5 -102.5z" />
    <glyph glyph-name="Emacron" unicode="&#x112;" horiz-adv-x="1159" 
d="M184 0v1464h854v-145h-676v-498h545v-145h-545v-531h713v-145h-891zM354 1610v131h545v-131h-545z" />
    <glyph glyph-name="emacron" unicode="&#x113;" horiz-adv-x="1163" 
d="M610 -18q-229 0 -373.5 148.5t-144.5 393.5v17q0 243 140.5 396t361.5 153q76 0 145 -18.5t131 -59.5t107 -101.5t71.5 -151t26.5 -202.5v-55h-807q6 -184 93.5 -281.5t250.5 -97.5q251 0 285 186h170q-27 -158 -149.5 -242.5t-307.5 -84.5zM274 639h627
q-22 309 -307 309q-129 0 -213.5 -82.5t-106.5 -226.5zM326 1327v131h536v-131h-536z" />
    <glyph glyph-name="Ebreve" unicode="&#x114;" horiz-adv-x="1159" 
d="M184 0v1464h854v-145h-676v-498h545v-145h-545v-531h713v-145h-891zM637 1571q-110 0 -187 76.5t-83 193.5h135q23 -131 135 -131q121 0 147 131h131q-6 -116 -86.5 -193t-191.5 -77z" />
    <glyph glyph-name="ebreve" unicode="&#x115;" horiz-adv-x="1163" 
d="M610 -18q-229 0 -373.5 148.5t-144.5 393.5v17q0 243 140.5 396t361.5 153q76 0 145 -18.5t131 -59.5t107 -101.5t71.5 -151t26.5 -202.5v-55h-807q6 -184 93.5 -281.5t250.5 -97.5q251 0 285 186h170q-27 -158 -149.5 -242.5t-307.5 -84.5zM274 639h627
q-22 309 -307 309q-129 0 -213.5 -82.5t-106.5 -226.5zM573 1268q-110 0 -187 76.5t-83 193.5h135q23 -131 135 -131q122 0 148 131h131q-6 -116 -87 -193t-192 -77z" />
    <glyph glyph-name="Edotaccent" unicode="&#x116;" horiz-adv-x="1159" 
d="M184 0v1464h854v-145h-676v-498h545v-145h-545v-531h713v-145h-891zM627 1612q-46 0 -79.5 33t-33.5 79t33.5 79.5t79.5 33.5t79 -33.5t33 -79.5t-33 -79t-79 -33z" />
    <glyph glyph-name="edotaccent" unicode="&#x117;" horiz-adv-x="1163" 
d="M610 -18q-229 0 -373.5 148.5t-144.5 393.5v17q0 243 140.5 396t361.5 153q76 0 145 -18.5t131 -59.5t107 -101.5t71.5 -151t26.5 -202.5v-55h-807q6 -184 93.5 -281.5t250.5 -97.5q251 0 285 186h170q-27 -158 -149.5 -242.5t-307.5 -84.5zM274 639h627
q-22 309 -307 309q-129 0 -213.5 -82.5t-106.5 -226.5zM594 1294q-46 0 -79.5 33.5t-33.5 79.5t33.5 79.5t79.5 33.5t79.5 -33.5t33.5 -79.5t-33.5 -79.5t-79.5 -33.5z" />
    <glyph glyph-name="Eogonek" unicode="&#x118;" horiz-adv-x="1159" 
d="M930 -373q-96 0 -154.5 44t-58.5 120q0 63 45 119t115 90h-693v1464h854v-145h-676v-498h545v-145h-545v-531h713v-145h-57q-71 -47 -105 -88.5t-34 -87.5q0 -74 77 -74q62 0 107 23v-121q-62 -25 -133 -25z" />
    <glyph glyph-name="eogonek" unicode="&#x119;" horiz-adv-x="1163" 
d="M795 -373q-96 0 -154.5 44t-58.5 120q0 59 39 112t102 87q-49 -8 -113 -8q-229 0 -373.5 148.5t-144.5 393.5v17q0 243 140.5 396t361.5 153q76 0 145 -18.5t131 -59.5t107 -101.5t71.5 -151t26.5 -202.5v-55h-807q6 -184 93.5 -281.5t250.5 -97.5q251 0 285 186h170
q-5 -27 -12 -51.5t-17.5 -46.5t-19 -39t-24 -36t-23 -29.5t-25.5 -27t-23 -21t-23 -19.5t-19 -16q-138 -117 -138 -199q0 -74 78 -74q62 0 107 23v-121q-62 -25 -133 -25zM274 639h627q-22 309 -307 309q-129 0 -213.5 -82.5t-106.5 -226.5z" />
    <glyph glyph-name="Ecaron" unicode="&#x11a;" horiz-adv-x="1159" 
d="M184 0v1464h854v-145h-676v-498h545v-145h-545v-531h713v-145h-891zM557 1579l-219 260h125l174 -119l174 119h121l-221 -260h-154z" />
    <glyph glyph-name="ecaron" unicode="&#x11b;" horiz-adv-x="1163" 
d="M610 -18q-229 0 -373.5 148.5t-144.5 393.5v17q0 243 140.5 396t361.5 153q76 0 145 -18.5t131 -59.5t107 -101.5t71.5 -151t26.5 -202.5v-55h-807q6 -184 93.5 -281.5t250.5 -97.5q251 0 285 186h170q-27 -158 -149.5 -242.5t-307.5 -84.5zM274 639h627
q-22 309 -307 309q-129 0 -213.5 -82.5t-106.5 -226.5zM516 1255l-219 295h125l174 -153l174 153h121l-221 -295h-154z" />
    <glyph glyph-name="Gcircumflex" unicode="&#x11c;" horiz-adv-x="1570" 
d="M821 -18q-220 0 -382 96.5t-244 263t-82 381.5v16q0 212 88.5 382.5t251 268t368.5 97.5q112 0 210 -27t179.5 -81.5t136 -145.5t70.5 -211h-178q-30 168 -138 246t-276 78q-248 0 -388 -166t-140 -439v-16q0 -277 135.5 -438.5t388.5 -161.5q116 0 204.5 36t143 100.5
t83 147.5t30.5 183h-428v147h602v-108q0 -208 -81 -355.5t-223 -220.5t-331 -73zM512 1579l221 260h154l219 -260h-125l-174 119l-174 -119h-121z" />
    <glyph glyph-name="gcircumflex" unicode="&#x11d;" horiz-adv-x="1284" 
d="M600 -391q-224 0 -342.5 91.5t-142.5 238.5h174q38 -187 309 -187q164 0 254 81.5t90 248.5v156q-49 -83 -149.5 -143t-212.5 -60q-211 0 -349.5 143.5t-138.5 364.5v14q0 145 62.5 266.5t178 194t259.5 72.5q125 0 212.5 -52.5t137.5 -138.5v172h170v-999
q-1 -226 -140.5 -344.5t-371.5 -118.5zM598 176q153 0 251.5 101.5t98.5 277.5v14q0 179 -91 279t-249 100q-157 0 -248.5 -106t-91.5 -277v-16q0 -170 95 -271.5t235 -101.5zM305 1255l221 295h154l219 -295h-125l-174 154l-174 -154h-121z" />
    <glyph glyph-name="Gbreve" unicode="&#x11e;" horiz-adv-x="1570" 
d="M821 -18q-220 0 -382 96.5t-244 263t-82 381.5v16q0 212 88.5 382.5t251 268t368.5 97.5q112 0 210 -27t179.5 -81.5t136 -145.5t70.5 -211h-178q-30 168 -138 246t-276 78q-248 0 -388 -166t-140 -439v-16q0 -277 135.5 -438.5t388.5 -161.5q116 0 204.5 36t143 100.5
t83 147.5t30.5 183h-428v147h602v-108q0 -208 -81 -355.5t-223 -220.5t-331 -73zM805 1571q-110 0 -187 76.5t-83 193.5h135q23 -131 135 -131q121 0 147 131h131q-6 -116 -86.5 -193t-191.5 -77z" />
    <glyph glyph-name="gbreve" unicode="&#x11f;" horiz-adv-x="1284" 
d="M600 -391q-224 0 -342.5 91.5t-142.5 238.5h174q38 -187 309 -187q164 0 254 81.5t90 248.5v156q-49 -83 -149.5 -143t-212.5 -60q-211 0 -349.5 143.5t-138.5 364.5v14q0 145 62.5 266.5t178 194t259.5 72.5q125 0 212.5 -52.5t137.5 -138.5v172h170v-999
q-1 -226 -140.5 -344.5t-371.5 -118.5zM598 176q153 0 251.5 101.5t98.5 277.5v14q0 179 -91 279t-249 100q-157 0 -248.5 -106t-91.5 -277v-16q0 -170 95 -271.5t235 -101.5zM598 1268q-110 0 -187 76.5t-83 193.5h135q23 -131 135 -131q121 0 147 131h132
q-6 -116 -87 -193t-192 -77z" />
    <glyph glyph-name="Gdotaccent" unicode="&#x120;" horiz-adv-x="1570" 
d="M821 -18q-220 0 -382 96.5t-244 263t-82 381.5v16q0 212 88.5 382.5t251 268t368.5 97.5q112 0 210 -27t179.5 -81.5t136 -145.5t70.5 -211h-178q-30 168 -138 246t-276 78q-248 0 -388 -166t-140 -439v-16q0 -277 135.5 -438.5t388.5 -161.5q116 0 204.5 36t143 100.5
t83 147.5t30.5 183h-428v147h602v-108q0 -208 -81 -355.5t-223 -220.5t-331 -73zM809 1612q-46 0 -79.5 33t-33.5 79t33.5 79.5t79.5 33.5t79.5 -33.5t33.5 -79.5t-33.5 -79t-79.5 -33z" />
    <glyph glyph-name="gdotaccent" unicode="&#x121;" horiz-adv-x="1284" 
d="M600 -391q-224 0 -342.5 91.5t-142.5 238.5h174q38 -187 309 -187q164 0 254 81.5t90 248.5v156q-49 -83 -149.5 -143t-212.5 -60q-211 0 -349.5 143.5t-138.5 364.5v14q0 145 62.5 266.5t178 194t259.5 72.5q125 0 212.5 -52.5t137.5 -138.5v172h170v-999
q-1 -226 -140.5 -344.5t-371.5 -118.5zM598 176q153 0 251.5 101.5t98.5 277.5v14q0 179 -91 279t-249 100q-157 0 -248.5 -106t-91.5 -277v-16q0 -170 95 -271.5t235 -101.5zM602 1294q-46 0 -79.5 33.5t-33.5 79.5t33.5 79.5t79.5 33.5t79.5 -33.5t33.5 -79.5t-33.5 -79.5
t-79.5 -33.5z" />
    <glyph glyph-name="Gcommaaccent" unicode="&#x122;" horiz-adv-x="1570" 
d="M821 -18q-220 0 -382 96.5t-244 263t-82 381.5v16q0 212 88.5 382.5t251 268t368.5 97.5q112 0 210 -27t179.5 -81.5t136 -145.5t70.5 -211h-178q-30 168 -138 246t-276 78q-248 0 -388 -166t-140 -439v-16q0 -277 135.5 -438.5t388.5 -161.5q116 0 204.5 36t143 100.5
t83 147.5t30.5 183h-428v147h602v-108q0 -208 -81 -355.5t-223 -220.5t-331 -73zM741 -451l-104 54l119 321l164 -49z" />
    <glyph glyph-name="gcommaaccent" unicode="&#x123;" horiz-adv-x="1284" 
d="M600 -391q-224 0 -342.5 91.5t-142.5 238.5h174q38 -187 309 -187q164 0 254 81.5t90 248.5v156q-49 -83 -149.5 -143t-212.5 -60q-211 0 -349.5 143.5t-138.5 364.5v14q0 145 62.5 266.5t178 194t259.5 72.5q125 0 212.5 -52.5t137.5 -138.5v172h170v-999
q-1 -226 -140.5 -344.5t-371.5 -118.5zM598 176q153 0 251.5 101.5t98.5 277.5v14q0 179 -91 279t-249 100q-157 0 -248.5 -106t-91.5 -277v-16q0 -170 95 -271.5t235 -101.5zM684 1233l-164 49l178 326l105 -54z" />
    <glyph glyph-name="Hcircumflex" unicode="&#x124;" horiz-adv-x="1495" 
d="M184 0v1464h178v-663h771v663h178v-1464h-178v651h-771v-651h-178zM451 1579l221 260h153l219 -260h-124l-175 119l-174 -119h-120z" />
    <glyph glyph-name="hcircumflex" unicode="&#x125;" horiz-adv-x="1224" 
d="M172 0v1583h170v-682q40 81 129.5 135t214.5 54q175 0 276 -105t101 -328v-657h-170v670q0 141 -61.5 206.5t-190.5 65.5q-126 0 -212.5 -77.5t-86.5 -215.5v-649h-170zM344 1681l221 261h154l219 -261h-125l-174 119l-174 -119h-121z" />
    <glyph glyph-name="Hbar" unicode="&#x126;" horiz-adv-x="1495" 
d="M41 1010v137h143v317h178v-317h771v317h178v-317h143v-137h-143v-1010h-178v651h-771v-651h-178v1010h-143zM362 801h771v209h-771v-209z" />
    <glyph glyph-name="hbar" unicode="&#x127;" horiz-adv-x="1224" 
d="M18 1260v124h154v199h170v-199h365v-124h-365v-359q40 81 129.5 135t214.5 54q175 0 276 -105t101 -328v-657h-170v670q0 141 -61.5 206.5t-190.5 65.5q-126 0 -212.5 -77.5t-86.5 -215.5v-649h-170v1260h-154z" />
    <glyph glyph-name="Itilde" unicode="&#x128;" horiz-adv-x="567" 
d="M195 0v1464h178v-1464h-178zM397 1585q-37 0 -80 22t-80 44t-61 22q-29 0 -51.5 -26t-30.5 -66h-123q12 108 69.5 173t137.5 65q37 0 79 -22t79 -44t61 -22q29 0 51.5 26t30.5 66h123q-12 -108 -69 -173t-136 -65z" />
    <glyph glyph-name="itilde" unicode="&#x129;" horiz-adv-x="522" 
d="M176 0v1071h170v-1071h-170zM373 1268q-37 0 -80 22t-80 44t-61 22q-29 0 -51.5 -26t-30.5 -66h-123q12 108 69.5 172.5t137.5 64.5q37 0 79 -22t79 -44t61 -22q29 0 51.5 26t30.5 66h123q-12 -107 -69 -172t-136 -65z" />
    <glyph glyph-name="Imacron" unicode="&#x12a;" horiz-adv-x="567" 
d="M195 0v1464h178v-1464h-178zM10 1610v131h545v-131h-545z" />
    <glyph glyph-name="imacron" unicode="&#x12b;" horiz-adv-x="522" 
d="M61 1327v131h398v-131h-398zM176 0v1071h170v-1071h-170z" />
    <glyph glyph-name="Ibreve" unicode="&#x12c;" horiz-adv-x="567" 
d="M195 0v1464h178v-1464h-178zM283 1571q-111 0 -188 76.5t-83 193.5h135q23 -131 136 -131q121 0 147 131h131q-6 -116 -86.5 -193t-191.5 -77z" />
    <glyph glyph-name="ibreve" unicode="&#x12d;" horiz-adv-x="522" 
d="M176 0v1071h170v-1071h-170zM258 1268q-110 0 -187 76.5t-83 193.5h135q23 -131 135 -131q122 0 148 131h131q-6 -116 -87 -193t-192 -77z" />
    <glyph glyph-name="Iogonek" unicode="&#x12e;" horiz-adv-x="567" 
d="M266 -373q-96 0 -154.5 44t-58.5 120q0 59 39.5 112.5t102.5 88.5v1472h178v-1456q-158 -90 -158 -184q0 -74 78 -74q61 0 106 23v-121q-62 -25 -133 -25z" />
    <glyph glyph-name="iogonek" unicode="&#x12f;" horiz-adv-x="522" 
d="M246 -373q-96 0 -154.5 44t-58.5 120q0 61 39.5 114t103.5 87v1079h170v-1065q-151 -91 -151 -182q0 -74 77 -74q62 0 107 23v-121q-62 -25 -133 -25zM258 1294q-46 0 -79.5 33.5t-33.5 79.5t33.5 79.5t79.5 33.5t79.5 -33.5t33.5 -79.5t-33.5 -79.5t-79.5 -33.5z" />
    <glyph glyph-name="Idotaccent" unicode="&#x130;" horiz-adv-x="567" 
d="M195 0v1464h178v-1464h-178zM283 1612q-46 0 -79.5 33t-33.5 79t33.5 79.5t79.5 33.5t79 -33.5t33 -79.5t-33 -79t-79 -33z" />
    <glyph glyph-name="dotlessi" unicode="&#x131;" horiz-adv-x="522" 
d="M176 0v1071h170v-1071h-170z" />
    <glyph glyph-name="IJ" unicode="&#x132;" horiz-adv-x="1345" 
d="M195 0v1464h178v-1464h-178zM768 -18q-131 0 -205 38v148q94 -41 195 -41q237 0 237 279v1058h179v-1067q0 -107 -31.5 -188t-88 -130t-128.5 -73t-158 -24z" />
    <glyph glyph-name="ij" unicode="&#x133;" horiz-adv-x="1044" 
d="M176 0v1071h170v-1071h-170zM258 1294q-46 0 -79.5 33.5t-33.5 79.5t33.5 79.5t79.5 33.5t79.5 -33.5t33.5 -79.5t-33.5 -79.5t-79.5 -33.5zM541 -391v143q86 7 121.5 49t35.5 117v1153h170v-1139q0 -158 -76.5 -237.5t-250.5 -85.5zM780 1294q-46 0 -79 33.5t-33 79.5
t33 79.5t79 33.5t79.5 -33.5t33.5 -79.5t-33.5 -79.5t-79.5 -33.5z" />
    <glyph glyph-name="Jcircumflex" unicode="&#x134;" horiz-adv-x="860" 
d="M283 -18q-131 0 -205 38v148q94 -41 194 -41q113 0 175.5 68t62.5 211v1058h178v-1067q0 -107 -31.5 -188t-87.5 -130t-128 -73t-158 -24zM297 1579l221 260h154l219 -260h-125l-174 119l-174 -119h-121z" />
    <glyph glyph-name="jcircumflex" unicode="&#x135;" horiz-adv-x="522" 
d="M18 -391v143q86 7 122 49t36 117v1153h170v-1139q0 -158 -77 -237.5t-251 -85.5zM-39 1255l221 295h154l219 -295h-125l-174 154l-174 -154h-121z" />
    <glyph glyph-name="Kcommaaccent" unicode="&#x136;" horiz-adv-x="1261" 
d="M184 0v1464h178v-704l637 706h199l-651 -712l684 -754h-215l-654 715v-715h-178zM592 -451l-105 54l119 321l164 -49z" />
    <glyph glyph-name="kcommaaccent" unicode="&#x137;" horiz-adv-x="1056" 
d="M172 0v1583h170v-1005l444 493h199l-459 -498l498 -573h-207l-475 555v-555h-170zM485 -451l-104 54l119 321l164 -49z" />
    <glyph glyph-name="Lacute" unicode="&#x139;" horiz-adv-x="1095" 
d="M184 0v1464h178v-1319h670v-145h-848zM201 1579l114 260h213l-200 -260h-127z" />
    <glyph glyph-name="lacute" unicode="&#x13a;" horiz-adv-x="524" 
d="M176 0v1583h172v-1583h-172zM188 1681l115 261h213l-201 -261h-127z" />
    <glyph glyph-name="Lcommaaccent" unicode="&#x13b;" horiz-adv-x="1095" 
d="M184 0v1464h178v-1319h670v-145h-848zM543 -451l-105 54l119 321l164 -49z" />
    <glyph glyph-name="lcommaaccent" unicode="&#x13c;" horiz-adv-x="524" 
d="M176 0v1583h172v-1583h-172zM195 -451l-105 54l119 321l164 -49z" />
    <glyph glyph-name="Lcaron" unicode="&#x13d;" horiz-adv-x="1095" 
d="M600 1143l45 321h193l-119 -321h-119zM184 0v1464h178v-1319h670v-145h-848z" />
    <glyph glyph-name="lcaron" unicode="&#x13e;" horiz-adv-x="524" 
d="M176 0v1583h172v-1583h-172zM446 1225l25 358h193l-99 -358h-119z" />
    <glyph glyph-name="Ldot" unicode="&#x13f;" horiz-adv-x="1095" 
d="M184 0v1464h178v-1319h670v-145h-848zM819 655q-54 0 -92.5 38t-38.5 93t38.5 93.5t92.5 38.5t92.5 -38.5t38.5 -93.5t-38.5 -93t-92.5 -38z" />
    <glyph glyph-name="ldot" unicode="&#x140;" horiz-adv-x="671" 
d="M176 0v1583h172v-1583h-172zM594 621q-54 0 -92.5 38t-38.5 93t38.5 93t92.5 38t92.5 -38t38.5 -93t-38.5 -93t-92.5 -38z" />
    <glyph glyph-name="Lslash" unicode="&#x141;" horiz-adv-x="1136" 
d="M86 514v139l139 52v759h178v-694l408 150v-140l-408 -149v-486h670v-145h-848v565z" />
    <glyph glyph-name="lslash" unicode="&#x142;" horiz-adv-x="565" 
d="M41 637v143l156 88v715h172v-616l163 94v-143l-163 -95v-823h-172v725z" />
    <glyph glyph-name="Nacute" unicode="&#x143;" horiz-adv-x="1482" 
d="M184 0v1464h232l712 -1210v1210h170v-1464h-204l-740 1255v-1255h-170zM686 1579l115 260h213l-201 -260h-127z" />
    <glyph glyph-name="nacute" unicode="&#x144;" horiz-adv-x="1224" 
d="M172 0v1071h170v-170q40 81 129.5 135t214.5 54q175 0 276 -105t101 -328v-657h-170v670q0 141 -61.5 206.5t-190.5 65.5q-126 0 -212.5 -77.5t-86.5 -215.5v-649h-170zM535 1255l127 301h212l-212 -301h-127z" />
    <glyph glyph-name="Ncommaaccent" unicode="&#x145;" horiz-adv-x="1482" 
d="M184 0v1464h232l712 -1210v1210h170v-1464h-204l-740 1255v-1255h-170zM649 -451l-104 54l119 321l163 -49z" />
    <glyph glyph-name="ncommaaccent" unicode="&#x146;" horiz-adv-x="1224" 
d="M172 0v1071h170v-170q40 81 129.5 135t214.5 54q175 0 276 -105t101 -328v-657h-170v670q0 141 -61.5 206.5t-190.5 65.5q-126 0 -212.5 -77.5t-86.5 -215.5v-649h-170zM543 -451l-105 54l119 321l164 -49z" />
    <glyph glyph-name="Ncaron" unicode="&#x147;" horiz-adv-x="1482" 
d="M184 0v1464h232l712 -1210v1210h170v-1464h-204l-740 1255v-1255h-170zM684 1579l-219 260h125l174 -119l174 119h121l-221 -260h-154z" />
    <glyph glyph-name="ncaron" unicode="&#x148;" horiz-adv-x="1224" 
d="M172 0v1071h170v-170q40 81 129.5 135t214.5 54q175 0 276 -105t101 -328v-657h-170v670q0 141 -61.5 206.5t-190.5 65.5q-126 0 -212.5 -77.5t-86.5 -215.5v-649h-170zM532 1255l-219 295h125l174 -153l174 153h121l-221 -295h-154z" />
    <glyph glyph-name="napostrophe" unicode="&#x149;" horiz-adv-x="1224" 
d="M172 0v1071h170v-170q40 81 129.5 135t214.5 54q175 0 276 -105t101 -328v-657h-170v670q0 141 -61.5 206.5t-190.5 65.5q-126 0 -212.5 -77.5t-86.5 -215.5v-649h-170zM14 999l-104 54l182 434l162 -74z" />
    <glyph glyph-name="Eng" unicode="&#x14a;" horiz-adv-x="1482" 
d="M893 -395q-129 0 -205 39v147q94 -41 195 -41q110 0 174 62.5t67 185.5l-770 1257v-1255h-170v1464h232l712 -1163v1163h170v-1444q0 -107 -31.5 -188t-87.5 -130t-128 -73t-158 -24z" />
    <glyph glyph-name="eng" unicode="&#x14b;" horiz-adv-x="1224" 
d="M735 -391v143q86 7 122 49t36 117v752q0 141 -61.5 206.5t-190.5 65.5q-126 0 -212.5 -77.5t-86.5 -215.5v-649h-170v1071h170v-170q40 81 129.5 135t214.5 54q175 0 276 -105t101 -328v-725q0 -158 -77 -237.5t-251 -85.5z" />
    <glyph glyph-name="Omacron" unicode="&#x14c;" horiz-adv-x="1660" 
d="M838 129q242 0 384 165.5t142 434.5v16q0 166 -61 299.5t-183 214t-286 80.5q-167 0 -289.5 -77t-185 -211.5t-62.5 -309.5v-16q0 -262 154.5 -429t386.5 -167zM838 -18q-159 0 -295 58.5t-230 158t-147 235.5t-53 289v16q0 155 52.5 291.5t146 236.5t229 158t293.5 58
t292.5 -58t226.5 -157.5t143.5 -235t51.5 -289.5v-16q0 -154 -51.5 -291t-143 -237t-225.5 -158.5t-290 -58.5zM557 1610v131h545v-131h-545z" />
    <glyph glyph-name="omacron" unicode="&#x14d;" horiz-adv-x="1236" 
d="M618 123q160 0 255.5 110.5t95.5 292.5v15q0 186 -95.5 296.5t-255.5 110.5q-161 0 -255.5 -110t-94.5 -295v-17q0 -184 94 -293.5t256 -109.5zM616 -18q-228 0 -376 154.5t-148 389.5v17q0 240 149 393.5t377 153.5q229 0 378 -152.5t149 -392.5v-17
q0 -241 -149.5 -393.5t-379.5 -152.5zM350 1327v131h537v-131h-537z" />
    <glyph glyph-name="Obreve" unicode="&#x14e;" horiz-adv-x="1660" 
d="M838 129q242 0 384 165.5t142 434.5v16q0 166 -61 299.5t-183 214t-286 80.5q-167 0 -289.5 -77t-185 -211.5t-62.5 -309.5v-16q0 -262 154.5 -429t386.5 -167zM838 -18q-159 0 -295 58.5t-230 158t-147 235.5t-53 289v16q0 155 52.5 291.5t146 236.5t229 158t293.5 58
t292.5 -58t226.5 -157.5t143.5 -235t51.5 -289.5v-16q0 -154 -51.5 -291t-143 -237t-225.5 -158.5t-290 -58.5zM825 1571q-110 0 -187 76.5t-83 193.5h135q23 -131 135 -131q122 0 148 131h131q-6 -116 -87 -193t-192 -77z" />
    <glyph glyph-name="obreve" unicode="&#x14f;" horiz-adv-x="1236" 
d="M618 123q160 0 255.5 110.5t95.5 292.5v15q0 186 -95.5 296.5t-255.5 110.5q-161 0 -255.5 -110t-94.5 -295v-17q0 -184 94 -293.5t256 -109.5zM616 -18q-228 0 -376 154.5t-148 389.5v17q0 240 149 393.5t377 153.5q229 0 378 -152.5t149 -392.5v-17
q0 -241 -149.5 -393.5t-379.5 -152.5zM614 1268q-110 0 -187 76.5t-83 193.5h135q23 -131 135 -131q122 0 148 131h131q-6 -116 -87 -193t-192 -77z" />
    <glyph glyph-name="Ohungarumlaut" unicode="&#x150;" horiz-adv-x="1660" 
d="M838 129q242 0 384 165.5t142 434.5v16q0 166 -61 299.5t-183 214t-286 80.5q-167 0 -289.5 -77t-185 -211.5t-62.5 -309.5v-16q0 -262 154.5 -429t386.5 -167zM838 -18q-159 0 -295 58.5t-230 158t-147 235.5t-53 289v16q0 155 52.5 291.5t146 236.5t229 158t293.5 58
t292.5 -58t226.5 -157.5t143.5 -235t51.5 -289.5v-16q0 -154 -51.5 -291t-143 -237t-225.5 -158.5t-290 -58.5zM600 1579l76 260h194l-147 -260h-123zM915 1579l76 260h195l-148 -260h-123z" />
    <glyph glyph-name="ohungarumlaut" unicode="&#x151;" horiz-adv-x="1236" 
d="M618 123q160 0 255.5 110.5t95.5 292.5v15q0 186 -95.5 296.5t-255.5 110.5q-161 0 -255.5 -110t-94.5 -295v-17q0 -184 94 -293.5t256 -109.5zM616 -18q-228 0 -376 154.5t-148 389.5v17q0 240 149 393.5t377 153.5q229 0 378 -152.5t149 -392.5v-17
q0 -241 -149.5 -393.5t-379.5 -152.5zM389 1255l82 301h195l-154 -301h-123zM705 1255l81 301h195l-154 -301h-122z" />
    <glyph glyph-name="OE" unicode="&#x152;" horiz-adv-x="1955" 
d="M113 737q0 155 45.5 285.5t134.5 230t233.5 155.5t331.5 56h977v-145h-643v-498h512v-145h-512v-531h680v-145h-1018q-184 0 -327.5 54.5t-233 152.5t-135 227.5t-45.5 284.5v18zM1014 1319h-152q-277 0 -421 -155t-144 -429v-16q0 -130 32.5 -233t99.5 -181t177 -120
t258 -42h150v1176z" />
    <glyph glyph-name="oe" unicode="&#x153;" horiz-adv-x="2037" 
d="M616 -18q-228 0 -376 154.5t-148 389.5v17q0 240 149 393.5t377 153.5q149 0 261.5 -68.5t173.5 -190.5q58 122 164.5 190.5t250.5 68.5q97 0 181 -30.5t152.5 -91.5t108.5 -167t40 -244v-55h-807q6 -184 93.5 -281.5t250.5 -97.5q251 0 285 186h170
q-27 -158 -149.5 -242.5t-307.5 -84.5q-151 0 -262 66.5t-170 189.5q-62 -122 -175 -189t-262 -67zM618 123q160 0 255.5 110.5t95.5 292.5v15q0 186 -95.5 296.5t-255.5 110.5q-161 0 -255.5 -110t-94.5 -295v-17q0 -184 94 -293.5t256 -109.5zM1149 639h627
q-22 309 -308 309q-129 0 -213 -82.5t-106 -226.5z" />
    <glyph glyph-name="Racute" unicode="&#x154;" horiz-adv-x="1286" 
d="M184 0v1464h441q109 0 199 -23t161.5 -70t111.5 -127t40 -187v-8q0 -171 -99.5 -269.5t-263.5 -130.5l449 -649h-199l-436 637h-226v-637h-178zM362 778h275q158 0 239.5 68.5t81.5 202.5v8q0 143 -81.5 203.5t-239.5 60.5h-275v-543zM559 1579l115 260h213l-201 -260
h-127z" />
    <glyph glyph-name="racute" unicode="&#x155;" horiz-adv-x="770" 
d="M172 0v1071h170v-192q56 100 136 153.5t216 57.5v-160q-86 -4 -146.5 -21t-109 -54.5t-72.5 -103.5t-24 -163v-588h-170zM344 1255l127 301h213l-213 -301h-127z" />
    <glyph glyph-name="Rcommaaccent" unicode="&#x156;" horiz-adv-x="1286" 
d="M184 0v1464h441q109 0 199 -23t161.5 -70t111.5 -127t40 -187v-8q0 -171 -99.5 -269.5t-263.5 -130.5l449 -649h-199l-436 637h-226v-637h-178zM362 778h275q158 0 239.5 68.5t81.5 202.5v8q0 143 -81.5 203.5t-239.5 60.5h-275v-543zM567 -451l-104 54l119 321l163 -49z
" />
    <glyph glyph-name="rcommaaccent" unicode="&#x157;" horiz-adv-x="770" 
d="M172 0v1071h170v-192q56 100 136 153.5t216 57.5v-160q-86 -4 -146.5 -21t-109 -54.5t-72.5 -103.5t-24 -163v-588h-170zM184 -451l-104 54l119 321l163 -49z" />
    <glyph glyph-name="Rcaron" unicode="&#x158;" horiz-adv-x="1286" 
d="M184 0v1464h441q109 0 199 -23t161.5 -70t111.5 -127t40 -187v-8q0 -171 -99.5 -269.5t-263.5 -130.5l449 -649h-199l-436 637h-226v-637h-178zM362 778h275q158 0 239.5 68.5t81.5 202.5v8q0 143 -81.5 203.5t-239.5 60.5h-275v-543zM557 1579l-219 260h125l174 -119
l174 119h121l-221 -260h-154z" />
    <glyph glyph-name="rcaron" unicode="&#x159;" horiz-adv-x="770" 
d="M172 0v1071h170v-192q56 100 136 153.5t216 57.5v-160q-86 -4 -146.5 -21t-109 -54.5t-72.5 -103.5t-24 -163v-588h-170zM342 1255l-219 295h125l174 -153l174 153h121l-221 -295h-154z" />
    <glyph glyph-name="Sacute" unicode="&#x15a;" horiz-adv-x="1284" 
d="M657 -18q-114 0 -205.5 24.5t-153 66.5t-104.5 102t-65.5 126.5t-30.5 144.5h172q10 -73 29.5 -125t61 -99.5t116 -72t180.5 -24.5q143 0 238.5 76.5t95.5 199.5q0 127 -74 187.5t-280 93.5q-121 19 -207 47t-152 74t-98.5 116t-32.5 166q0 170 133 284t338 114
q220 0 351 -104.5t153 -299.5h-159q-26 137 -109 198.5t-236 61.5q-146 0 -225.5 -65.5t-79.5 -171.5q0 -58 13.5 -96t51 -71t107.5 -55.5t181 -39.5q259 -40 378 -134t119 -292q0 -185 -144 -308.5t-362 -123.5zM543 1579l114 260h213l-200 -260h-127z" />
    <glyph glyph-name="sacute" unicode="&#x15b;" horiz-adv-x="983" 
d="M504 -18q-192 0 -302 91.5t-118 256.5h166q9 -100 68.5 -153.5t183.5 -53.5q121 0 177 41.5t56 128.5q0 80 -58 117.5t-192 62.5q-209 38 -290.5 107t-81.5 208q0 58 21.5 107.5t57.5 85t83 60.5t98 37t102 12q75 0 138 -16.5t116.5 -51.5t87.5 -96.5t45 -145.5h-164
q-19 88 -71.5 128t-153.5 40q-92 0 -147.5 -42t-55.5 -111q0 -73 51.5 -108.5t198.5 -61.5q76 -14 125.5 -27t101.5 -37t82 -56t49 -82t19 -116q0 -150 -101 -237.5t-292 -87.5zM412 1255l127 301h213l-213 -301h-127z" />
    <glyph glyph-name="Scircumflex" unicode="&#x15c;" horiz-adv-x="1284" 
d="M657 -18q-114 0 -205.5 24.5t-153 66.5t-104.5 102t-65.5 126.5t-30.5 144.5h172q10 -73 29.5 -125t61 -99.5t116 -72t180.5 -24.5q143 0 238.5 76.5t95.5 199.5q0 127 -74 187.5t-280 93.5q-121 19 -207 47t-152 74t-98.5 116t-32.5 166q0 170 133 284t338 114
q220 0 351 -104.5t153 -299.5h-159q-26 137 -109 198.5t-236 61.5q-146 0 -225.5 -65.5t-79.5 -171.5q0 -58 13.5 -96t51 -71t107.5 -55.5t181 -39.5q259 -40 378 -134t119 -292q0 -185 -144 -308.5t-362 -123.5zM322 1579l221 260h153l219 -260h-124l-175 119l-174 -119
h-120z" />
    <glyph glyph-name="scircumflex" unicode="&#x15d;" horiz-adv-x="983" 
d="M504 -18q-192 0 -302 91.5t-118 256.5h166q9 -100 68.5 -153.5t183.5 -53.5q121 0 177 41.5t56 128.5q0 80 -58 117.5t-192 62.5q-209 38 -290.5 107t-81.5 208q0 58 21.5 107.5t57.5 85t83 60.5t98 37t102 12q75 0 138 -16.5t116.5 -51.5t87.5 -96.5t45 -145.5h-164
q-19 88 -71.5 128t-153.5 40q-92 0 -147.5 -42t-55.5 -111q0 -73 51.5 -108.5t198.5 -61.5q76 -14 125.5 -27t101.5 -37t82 -56t49 -82t19 -116q0 -150 -101 -237.5t-292 -87.5zM190 1255l222 295h153l219 -295h-125l-174 154l-174 -154h-121z" />
    <glyph glyph-name="Scedilla" unicode="&#x15e;" horiz-adv-x="1284" 
d="M594 -438q-88 0 -143.5 47.5t-61.5 124.5h111q7 -32 29.5 -53t58.5 -21q38 0 60 20.5t22 53.5q0 32 -20.5 50.5t-53.5 18.5q-30 0 -57 -16l-66 57l78 144q-113 13 -198 54t-136.5 104t-80 136.5t-38.5 163.5h172q10 -73 29.5 -125t61 -99.5t116 -72t180.5 -24.5
q143 0 238.5 76.5t95.5 199.5q0 127 -74 187.5t-280 93.5q-121 19 -207 47t-152 74t-98.5 116t-32.5 166q0 170 133 284t338 114q220 0 351 -104.5t153 -299.5h-159q-26 137 -109 198.5t-236 61.5q-146 0 -225.5 -65.5t-79.5 -171.5q0 -58 13.5 -96t51 -71t107.5 -55.5
t181 -39.5q259 -40 378 -134t119 -292q0 -185 -144 -308.5t-362 -123.5l-49 -91q77 10 135 -33.5t58 -131.5q0 -79 -59 -121.5t-148 -42.5z" />
    <glyph glyph-name="scedilla" unicode="&#x15f;" horiz-adv-x="983" 
d="M465 -438q-88 0 -143.5 47.5t-61.5 124.5h111q7 -32 29.5 -53t58.5 -21q38 0 60 20.5t22 53.5q0 32 -20.5 50.5t-53.5 18.5q-30 0 -57 -16l-66 57l78 144q-155 17 -243.5 106.5t-94.5 235.5h166q9 -100 68.5 -153.5t183.5 -53.5q121 0 177 41.5t56 128.5q0 80 -58 117.5
t-192 62.5q-209 38 -290.5 107t-81.5 208q0 58 21.5 107.5t57.5 85t83 60.5t98 37t102 12q75 0 138 -16.5t116.5 -51.5t87.5 -96.5t45 -145.5h-164q-19 88 -71.5 128t-153.5 40q-92 0 -147.5 -42t-55.5 -111q0 -73 51.5 -108.5t198.5 -61.5q76 -14 125.5 -27t101.5 -37
t82 -56t49 -82t19 -116q0 -145 -95 -232t-274 -93l-49 -91q77 10 135 -33.5t58 -131.5q0 -79 -59 -121.5t-148 -42.5z" />
    <glyph glyph-name="Scaron" unicode="&#x160;" horiz-adv-x="1284" 
d="M657 -18q-114 0 -205.5 24.5t-153 66.5t-104.5 102t-65.5 126.5t-30.5 144.5h172q10 -73 29.5 -125t61 -99.5t116 -72t180.5 -24.5q143 0 238.5 76.5t95.5 199.5q0 127 -74 187.5t-280 93.5q-121 19 -207 47t-152 74t-98.5 116t-32.5 166q0 170 133 284t338 114
q220 0 351 -104.5t153 -299.5h-159q-26 137 -109 198.5t-236 61.5q-146 0 -225.5 -65.5t-79.5 -171.5q0 -58 13.5 -96t51 -71t107.5 -55.5t181 -39.5q259 -40 378 -134t119 -292q0 -185 -144 -308.5t-362 -123.5zM541 1579l-219 260h124l175 -119l174 119h120l-221 -260
h-153z" />
    <glyph glyph-name="scaron" unicode="&#x161;" horiz-adv-x="983" 
d="M504 -18q-192 0 -302 91.5t-118 256.5h166q9 -100 68.5 -153.5t183.5 -53.5q121 0 177 41.5t56 128.5q0 80 -58 117.5t-192 62.5q-209 38 -290.5 107t-81.5 208q0 58 21.5 107.5t57.5 85t83 60.5t98 37t102 12q75 0 138 -16.5t116.5 -51.5t87.5 -96.5t45 -145.5h-164
q-19 88 -71.5 128t-153.5 40q-92 0 -147.5 -42t-55.5 -111q0 -73 51.5 -108.5t198.5 -61.5q76 -14 125.5 -27t101.5 -37t82 -56t49 -82t19 -116q0 -150 -101 -237.5t-292 -87.5zM410 1255l-220 295h125l174 -153l175 153h120l-221 -295h-153z" />
    <glyph glyph-name="Tcommaaccent" unicode="&#x162;" horiz-adv-x="1148" 
d="M485 0v1319h-426v145h1031v-145h-426v-1319h-179zM506 -451l-105 54l119 321l164 -49z" />
    <glyph glyph-name="tcommaaccent" unicode="&#x163;" horiz-adv-x="727" 
d="M498 -14q-142 0 -215.5 76t-73.5 206v660h-154v143h154v244h170v-244h250v-143h-250v-643q0 -156 133 -156q70 0 131 23v-144q-64 -22 -145 -22zM324 -451l-105 54l119 321l164 -49z" />
    <glyph glyph-name="Tcaron" unicode="&#x164;" horiz-adv-x="1148" 
d="M485 0v1319h-426v145h1031v-145h-426v-1319h-179zM496 1579l-220 260h125l174 -119l175 119h120l-221 -260h-153z" />
    <glyph glyph-name="tcaron" unicode="&#x165;" horiz-adv-x="727" 
d="M498 -14q-142 0 -215.5 76t-73.5 206v660h-154v143h154v244h170v-244h250v-143h-250v-643q0 -156 133 -156q70 0 131 23v-144q-64 -22 -145 -22zM526 1225l25 358h192l-98 -358h-119z" />
    <glyph glyph-name="Tbar" unicode="&#x166;" horiz-adv-x="1148" 
d="M188 692v135h297v492h-426v145h1031v-145h-426v-492h297v-135h-297v-692h-179v692h-297z" />
    <glyph glyph-name="tbar" unicode="&#x167;" horiz-adv-x="727" 
d="M55 573v121h154v234h-154v143h154v244h170v-244h250v-143h-250v-234h250v-121h-250v-288q0 -156 133 -156q70 0 131 23v-144q-64 -22 -145 -22q-142 0 -215.5 76t-73.5 206v305h-154z" />
    <glyph glyph-name="Utilde" unicode="&#x168;" horiz-adv-x="1425" 
d="M698 -18q-252 0 -389 143.5t-137 409.5v929h178v-909q0 -228 83.5 -327t268.5 -99q92 0 157.5 21t115.5 71t75 139.5t25 221.5v882h178v-907q0 -274 -139 -424.5t-416 -150.5zM823 1585q-37 0 -80 22t-80 44t-61 22q-29 0 -51.5 -26t-30.5 -66h-123q12 108 69.5 173
t137.5 65q37 0 79 -22t79 -44t61 -22q29 0 51.5 26t30.5 66h123q-12 -108 -69 -173t-136 -65z" />
    <glyph glyph-name="utilde" unicode="&#x169;" horiz-adv-x="1216" 
d="M535 -18q-170 0 -271.5 100t-101.5 311v678h170v-670q0 -140 60.5 -206t187.5 -66q122 0 208 77.5t86 215.5v649h170v-1071h-170v170q-40 -81 -128.5 -134.5t-210.5 -53.5zM719 1268q-37 0 -80 22t-80 44t-61 22q-29 0 -51.5 -26t-30.5 -66h-123q12 108 69.5 172.5
t137.5 64.5q37 0 79 -22t79 -44t61 -22q29 0 51.5 26t30.5 66h123q-12 -107 -69 -172t-136 -65z" />
    <glyph glyph-name="Umacron" unicode="&#x16a;" horiz-adv-x="1425" 
d="M698 -18q-252 0 -389 143.5t-137 409.5v929h178v-909q0 -228 83.5 -327t268.5 -99q92 0 157.5 21t115.5 71t75 139.5t25 221.5v882h178v-907q0 -274 -139 -424.5t-416 -150.5zM440 1610v131h545v-131h-545z" />
    <glyph glyph-name="umacron" unicode="&#x16b;" horiz-adv-x="1216" 
d="M535 -18q-170 0 -271.5 100t-101.5 311v678h170v-670q0 -140 60.5 -206t187.5 -66q122 0 208 77.5t86 215.5v649h170v-1071h-170v170q-40 -81 -128.5 -134.5t-210.5 -53.5zM340 1327v131h537v-131h-537z" />
    <glyph glyph-name="Ubreve" unicode="&#x16c;" horiz-adv-x="1425" 
d="M698 -18q-252 0 -389 143.5t-137 409.5v929h178v-909q0 -228 83.5 -327t268.5 -99q92 0 157.5 21t115.5 71t75 139.5t25 221.5v882h178v-907q0 -274 -139 -424.5t-416 -150.5zM709 1571q-111 0 -188 76.5t-83 193.5h135q23 -131 136 -131q121 0 147 131h131
q-6 -116 -86.5 -193t-191.5 -77z" />
    <glyph glyph-name="ubreve" unicode="&#x16d;" horiz-adv-x="1216" 
d="M535 -18q-170 0 -271.5 100t-101.5 311v678h170v-670q0 -140 60.5 -206t187.5 -66q122 0 208 77.5t86 215.5v649h170v-1071h-170v170q-40 -81 -128.5 -134.5t-210.5 -53.5zM604 1268q-110 0 -187 76.5t-83 193.5h135q23 -131 135 -131q122 0 148 131h131
q-6 -116 -87 -193t-192 -77z" />
    <glyph glyph-name="Uring" unicode="&#x16e;" horiz-adv-x="1425" 
d="M698 -18q-252 0 -389 143.5t-137 409.5v929h178v-909q0 -228 83.5 -327t268.5 -99q92 0 157.5 21t115.5 71t75 139.5t25 221.5v882h178v-907q0 -274 -139 -424.5t-416 -150.5zM713 1608q47 0 77.5 33.5t30.5 84.5t-30.5 85t-77.5 34t-78 -34t-31 -85t31 -84.5t78 -33.5z
M713 1513q-91 0 -155 62.5t-64 150.5t64 150.5t155 62.5t155 -62.5t64 -150.5t-64 -150.5t-155 -62.5z" />
    <glyph glyph-name="uring" unicode="&#x16f;" horiz-adv-x="1216" 
d="M535 -18q-170 0 -271.5 100t-101.5 311v678h170v-670q0 -140 60.5 -206t187.5 -66q122 0 208 77.5t86 215.5v649h170v-1071h-170v170q-40 -81 -128.5 -134.5t-210.5 -53.5zM602 1257q47 0 78 34t31 85t-31 85t-78 34t-77.5 -34t-30.5 -85t30.5 -85t77.5 -34zM602 1163
q-91 0 -155 62.5t-64 150.5t64 150.5t155 62.5t155 -62.5t64 -150.5t-64 -150.5t-155 -62.5z" />
    <glyph glyph-name="Uhungarumlaut" unicode="&#x170;" horiz-adv-x="1425" 
d="M698 -18q-252 0 -389 143.5t-137 409.5v929h178v-909q0 -228 83.5 -327t268.5 -99q92 0 157.5 21t115.5 71t75 139.5t25 221.5v882h178v-907q0 -274 -139 -424.5t-416 -150.5zM483 1579l76 260h195l-148 -260h-123zM799 1579l75 260h195l-147 -260h-123z" />
    <glyph glyph-name="uhungarumlaut" unicode="&#x171;" horiz-adv-x="1216" 
d="M535 -18q-170 0 -271.5 100t-101.5 311v678h170v-670q0 -140 60.5 -206t187.5 -66q122 0 208 77.5t86 215.5v649h170v-1071h-170v170q-40 -81 -128.5 -134.5t-210.5 -53.5zM379 1255l82 301h194l-153 -301h-123zM694 1255l82 301h195l-154 -301h-123z" />
    <glyph glyph-name="Uogonek" unicode="&#x172;" horiz-adv-x="1425" 
d="M786 -373q-96 0 -154.5 44t-58.5 120q0 56 35 105.5t92 85.5h-2q-252 0 -389 143.5t-137 409.5v929h178v-909q0 -228 83.5 -327t268.5 -99q92 0 157.5 21t115.5 71t75 139.5t25 221.5v882h178v-907q0 -194 -69.5 -326t-202.5 -194q-135 -64 -175 -94q-71 -52 -71 -119
q0 -74 78 -74q62 0 107 23v-121q-62 -25 -134 -25z" />
    <glyph glyph-name="uogonek" unicode="&#x173;" horiz-adv-x="1216" 
d="M940 -373q-96 0 -154.5 44t-58.5 120q0 61 41 115t106 88v176q-40 -81 -128.5 -134.5t-210.5 -53.5q-170 0 -271.5 100t-101.5 311v678h170v-670q0 -140 60.5 -206t187.5 -66q122 0 208 77.5t86 215.5v649h170v-1061q-83 -52 -119 -95.5t-36 -90.5q0 -74 78 -74
q61 0 106 23v-121q-62 -25 -133 -25z" />
    <glyph glyph-name="Wcircumflex" unicode="&#x174;" horiz-adv-x="1900" 
d="M451 0l-381 1464h182l297 -1181l344 1181h127l344 -1185l301 1185h166l-381 -1464h-164l-332 1157l-342 -1157h-161zM653 1579l221 260h154l219 -260h-125l-174 119l-174 -119h-121z" />
    <glyph glyph-name="wcircumflex" unicode="&#x175;" horiz-adv-x="1626" 
d="M387 0l-330 1071h185l250 -862l260 862h147l244 -862l252 862h174l-334 -1071h-188l-224 803l-250 -803h-186zM516 1255l221 295h154l219 -295h-125l-174 154l-174 -154h-121z" />
    <glyph glyph-name="Ycircumflex" unicode="&#x176;" horiz-adv-x="1224" 
d="M537 0v639l-490 825h201l383 -680l368 680h179l-463 -827v-637h-178zM315 1579l222 260h153l219 -260h-125l-174 119l-174 -119h-121z" />
    <glyph glyph-name="ycircumflex" unicode="&#x177;" horiz-adv-x="1083" 
d="M268 -373l203 484l-420 960h182l328 -768l297 768h174l-592 -1444h-172zM244 1255l221 295h153l220 -295h-125l-174 154l-174 -154h-121z" />
    <glyph glyph-name="Ydieresis" unicode="&#x178;" horiz-adv-x="1224" 
d="M537 0v639l-490 825h201l383 -680l368 680h179l-463 -827v-637h-178zM403 1616q-44 0 -76 32t-32 76t32 76.5t76 32.5t76.5 -32.5t32.5 -76.5t-32.5 -76t-76.5 -32zM819 1616q-44 0 -76 32t-32 76t32 76.5t76 32.5t76.5 -32.5t32.5 -76.5t-32.5 -76t-76.5 -32z" />
    <glyph glyph-name="Zacute" unicode="&#x179;" horiz-adv-x="1218" 
d="M57 0v29l830 1290h-756v145h1002v-26l-807 -1286h794v-152h-1063zM528 1579l115 260h213l-201 -260h-127z" />
    <glyph glyph-name="zacute" unicode="&#x17a;" horiz-adv-x="989" 
d="M43 0v25l633 903h-572v143h834v-31l-619 -890h611v-150h-887zM432 1255l127 301h213l-213 -301h-127z" />
    <glyph glyph-name="Zdotaccent" unicode="&#x17b;" horiz-adv-x="1218" 
d="M57 0v29l830 1290h-756v145h1002v-26l-807 -1286h794v-152h-1063zM604 1612q-46 0 -79 33t-33 79t33 79.5t79 33.5t79.5 -33.5t33.5 -79.5t-33.5 -79t-79.5 -33z" />
    <glyph glyph-name="zdotaccent" unicode="&#x17c;" horiz-adv-x="989" 
d="M43 0v25l633 903h-572v143h834v-31l-619 -890h611v-150h-887zM508 1294q-46 0 -79.5 33.5t-33.5 79.5t33.5 79.5t79.5 33.5t79.5 -33.5t33.5 -79.5t-33.5 -79.5t-79.5 -33.5z" />
    <glyph glyph-name="Zcaron" unicode="&#x17d;" horiz-adv-x="1218" 
d="M57 0v29l830 1290h-756v145h1002v-26l-807 -1286h794v-152h-1063zM526 1579l-219 260h125l174 -119l174 119h121l-221 -260h-154z" />
    <glyph glyph-name="zcaron" unicode="&#x17e;" horiz-adv-x="989" 
d="M43 0v25l633 903h-572v143h834v-31l-619 -890h611v-150h-887zM430 1255l-219 295h125l174 -153l174 153h121l-221 -295h-154z" />
    <glyph glyph-name="florin" unicode="&#x192;" horiz-adv-x="813" 
d="M59 707v139h199l47 311q51 326 346 326q76 0 140 -23v-143q-62 24 -136 24q-154 0 -182 -192l-47 -303h270v-139h-290l-164 -1080h-170l164 1080h-177z" />
    <glyph glyph-name="Aringacute" unicode="&#x1fa;" horiz-adv-x="1380" 
d="M74 0l504 1464h233l496 -1464h-177l-143 422h-604l-141 -422h-168zM686 1317l-254 -754h508zM705 1534q-91 0 -155.5 62.5t-64.5 150.5t64.5 150.5t155.5 62.5t155 -62.5t64 -150.5t-64 -150.5t-155 -62.5zM637 2019l115 260h213l-201 -260h-127zM705 1628q47 0 77.5 34
t30.5 85t-30.5 85t-77.5 34t-78 -34t-31 -85t31 -85t78 -34z" />
    <glyph glyph-name="aringacute" unicode="&#x1fb;" horiz-adv-x="1105" 
d="M440 -18q-103 0 -181 32t-126.5 104.5t-48.5 178.5q0 89 44.5 155.5t122 104t170 55t200.5 17.5h153v78q0 128 -53 184.5t-176 56.5q-223 0 -246 -192h-170q8 88 46 154.5t97.5 104.5t129.5 56.5t151 18.5q65 0 120 -11t106 -38t86.5 -69.5t57 -110t21.5 -154.5v-707
h-170v135q-62 -78 -140.5 -115.5t-193.5 -37.5zM457 117q139 0 228 68.5t89 189.5v133h-147q-373 0 -373 -211q0 -88 47.5 -134t155.5 -46zM559 1278q47 0 78 34t31 85t-31 85t-78 34t-77.5 -34t-30.5 -85t30.5 -85t77.5 -34zM559 1184q-91 0 -155 62.5t-64 150.5t64 150.5
t155 62.5t155 -62.5t64 -150.5t-64 -150.5t-155 -62.5zM506 1698l115 260h213l-201 -260h-127z" />
    <glyph glyph-name="AEacute" unicode="&#x1fc;" horiz-adv-x="1945" 
d="M59 0l758 1464h1008v-145h-676v-498h545v-145h-545v-531h713v-145h-891v424h-516l-215 -424h-181zM907 1319l-383 -756h447v756h-64zM1174 1579l114 260h213l-201 -260h-126z" />
    <glyph glyph-name="aeacute" unicode="&#x1fd;" horiz-adv-x="1802" 
d="M1262 -18q-134 0 -238 58t-166 163q-74 -116 -172.5 -168.5t-245.5 -52.5q-103 0 -181 32t-126.5 104.5t-48.5 178.5q0 90 43.5 157.5t119.5 106t167.5 56.5t199.5 18h160v70q0 127 -55 185t-174 58q-223 0 -246 -192h-170q8 88 46 154.5t97.5 104.5t129.5 56.5t151 18.5
q255 0 336 -183q130 183 360 183q74 0 140 -18t126 -58.5t104 -101t69.5 -151.5t25.5 -204v-51h-776q6 -186 88 -284.5t238 -98.5q238 0 272 186h170q-27 -158 -146.5 -242.5t-297.5 -84.5zM457 117q139 0 228 68.5t89 189.5v131h-153q-367 0 -367 -209q0 -88 47.5 -134
t155.5 -46zM944 635h596q-12 164 -85.5 238.5t-205.5 74.5q-124 0 -204.5 -83.5t-100.5 -229.5zM834 1255l127 301h213l-213 -301h-127z" />
    <glyph glyph-name="Oslashacute" unicode="&#x1fe;" horiz-adv-x="1660" 
d="M164 -68l-92 93l200 219q-159 201 -159 479v16q0 155 52.5 291.5t146 236.5t229 158t293.5 58q251 0 438 -144l166 181l92 -93l-162 -178q87 -99 133.5 -229t46.5 -277v-16q0 -154 -51.5 -291t-143 -237t-225.5 -158.5t-290 -58.5q-277 0 -476 168zM838 129
q242 0 384 165.5t142 434.5v16q0 229 -107 385l-786 -862q142 -139 367 -139zM297 725q0 -206 90 -354l782 856q-134 112 -335 112q-167 0 -289.5 -77t-185 -211.5t-62.5 -309.5v-16zM756 1579l114 260h213l-200 -260h-127z" />
    <glyph glyph-name="oslashacute" unicode="&#x1ff;" horiz-adv-x="1236" 
d="M137 -76l-90 78l158 174q-113 144 -113 350v17q0 240 149 393.5t377 153.5q186 0 320 -103l139 152l90 -78l-143 -158q121 -150 121 -358v-17q0 -241 -149.5 -393.5t-379.5 -152.5q-189 0 -327 110zM618 123q160 0 255.5 110.5t95.5 292.5v15q0 133 -56 239l-524 -575
q91 -82 229 -82zM268 526q0 -133 49 -227l519 573q-88 76 -218 76q-161 0 -255.5 -110t-94.5 -295v-17zM541 1255l127 301h213l-213 -301h-127z" />
    <glyph glyph-name="Scommaaccent" unicode="&#x218;" horiz-adv-x="1284" 
d="M657 -18q-114 0 -205.5 24.5t-153 66.5t-104.5 102t-65.5 126.5t-30.5 144.5h172q10 -73 29.5 -125t61 -99.5t116 -72t180.5 -24.5q143 0 238.5 76.5t95.5 199.5q0 127 -74 187.5t-280 93.5q-121 19 -207 47t-152 74t-98.5 116t-32.5 166q0 170 133 284t338 114
q220 0 351 -104.5t153 -299.5h-159q-26 137 -109 198.5t-236 61.5q-146 0 -225.5 -65.5t-79.5 -171.5q0 -58 13.5 -96t51 -71t107.5 -55.5t181 -39.5q259 -40 378 -134t119 -292q0 -185 -144 -308.5t-362 -123.5zM551 -451l-105 54l119 321l164 -49z" />
    <glyph glyph-name="scommaaccent" unicode="&#x219;" horiz-adv-x="983" 
d="M504 -18q-192 0 -302 91.5t-118 256.5h166q9 -100 68.5 -153.5t183.5 -53.5q121 0 177 41.5t56 128.5q0 80 -58 117.5t-192 62.5q-209 38 -290.5 107t-81.5 208q0 58 21.5 107.5t57.5 85t83 60.5t98 37t102 12q75 0 138 -16.5t116.5 -51.5t87.5 -96.5t45 -145.5h-164
q-19 88 -71.5 128t-153.5 40q-92 0 -147.5 -42t-55.5 -111q0 -73 51.5 -108.5t198.5 -61.5q76 -14 125.5 -27t101.5 -37t82 -56t49 -82t19 -116q0 -150 -101 -237.5t-292 -87.5zM420 -451l-105 54l119 321l164 -49z" />
    <glyph glyph-name="uni0237" unicode="&#x237;" horiz-adv-x="522" 
d="M18 -391v143q86 7 122 49t36 117v1153h170v-1139q0 -158 -77 -237.5t-251 -85.5z" />
    <glyph glyph-name="circumflex" unicode="&#x2c6;" horiz-adv-x="819" 
d="M113 1255l221 295h153l220 -295h-125l-174 154l-175 -154h-120z" />
    <glyph glyph-name="caron" unicode="&#x2c7;" horiz-adv-x="819" 
d="M332 1255l-219 295h125l174 -153l174 153h121l-222 -295h-153z" />
    <glyph glyph-name="breve" unicode="&#x2d8;" horiz-adv-x="819" 
d="M406 1268q-111 0 -188 76.5t-83 193.5h135q23 -131 136 -131q121 0 147 131h131q-6 -116 -86.5 -193t-191.5 -77z" />
    <glyph glyph-name="dotaccent" unicode="&#x2d9;" horiz-adv-x="819" 
d="M410 1294q-46 0 -79.5 33.5t-33.5 79.5t33.5 79.5t79.5 33.5t79 -33.5t33 -79.5t-33 -79.5t-79 -33.5z" />
    <glyph glyph-name="ring" unicode="&#x2da;" horiz-adv-x="819" 
d="M410 1319q47 0 77.5 34t30.5 85t-30.5 84.5t-77.5 33.5t-78 -33.5t-31 -84.5t31 -85t78 -34zM410 1225q-91 0 -155.5 62.5t-64.5 150.5t64.5 150.5t155.5 62.5t155 -62.5t64 -150.5t-64 -150.5t-155 -62.5z" />
    <glyph glyph-name="ogonek" unicode="&#x2db;" horiz-adv-x="819" 
d="M457 -373q-96 0 -154.5 44t-58.5 120q0 63 45 119t114 90h142q-71 -47 -105 -88.5t-34 -87.5q0 -74 77 -74q62 0 107 23v-121q-62 -25 -133 -25z" />
    <glyph glyph-name="tilde" unicode="&#x2dc;" horiz-adv-x="819" 
d="M520 1268q-37 0 -80 22t-80 44t-61 22q-29 0 -51.5 -26t-30.5 -66h-123q12 108 69.5 172.5t137.5 64.5q37 0 79 -22t79 -44t61 -22q29 0 51.5 26t30.5 66h123q-12 -107 -69 -172t-136 -65z" />
    <glyph glyph-name="hungarumlaut" unicode="&#x2dd;" horiz-adv-x="819" 
d="M197 1255l82 301h194l-154 -301h-122zM512 1255l82 301h194l-153 -301h-123z" />
    <glyph glyph-name="Wgrave" unicode="&#x1e80;" horiz-adv-x="1900" 
d="M451 0l-381 1464h182l297 -1181l344 1181h127l344 -1185l301 1185h166l-381 -1464h-164l-332 1157l-342 -1157h-161zM905 1579l-200 260h213l114 -260h-127z" />
    <glyph glyph-name="wgrave" unicode="&#x1e81;" horiz-adv-x="1626" 
d="M387 0l-330 1071h185l250 -862l260 862h147l244 -862l252 862h174l-334 -1071h-188l-224 803l-250 -803h-186zM780 1255l-213 301h213l127 -301h-127z" />
    <glyph glyph-name="Wacute" unicode="&#x1e82;" horiz-adv-x="1900" 
d="M451 0l-381 1464h182l297 -1181l344 1181h127l344 -1185l301 1185h166l-381 -1464h-164l-332 1157l-342 -1157h-161zM901 1579l115 260h213l-201 -260h-127z" />
    <glyph glyph-name="wacute" unicode="&#x1e83;" horiz-adv-x="1626" 
d="M387 0l-330 1071h185l250 -862l260 862h147l244 -862l252 862h174l-334 -1071h-188l-224 803l-250 -803h-186zM758 1255l127 301h213l-213 -301h-127z" />
    <glyph glyph-name="Wdieresis" unicode="&#x1e84;" horiz-adv-x="1900" 
d="M451 0l-381 1464h182l297 -1181l344 1181h127l344 -1185l301 1185h166l-381 -1464h-164l-332 1157l-342 -1157h-161zM748 1616q-44 0 -76.5 32t-32.5 76t32.5 76.5t76.5 32.5t76 -32.5t32 -76.5t-32 -76t-76 -32zM1163 1616q-44 0 -76 32t-32 76t32 76.5t76 32.5
t76.5 -32.5t32.5 -76.5t-32.5 -76t-76.5 -32z" />
    <glyph glyph-name="wdieresis" unicode="&#x1e85;" horiz-adv-x="1626" 
d="M387 0l-330 1071h185l250 -862l260 862h147l244 -862l252 862h174l-334 -1071h-188l-224 803l-250 -803h-186zM631 1298q-44 0 -76.5 32.5t-32.5 76.5t32.5 76.5t76.5 32.5t76 -32.5t32 -76.5t-32 -76.5t-76 -32.5zM1016 1298q-44 0 -76.5 32.5t-32.5 76.5t32.5 76.5
t76.5 32.5t76 -32.5t32 -76.5t-32 -76.5t-76 -32.5z" />
    <glyph glyph-name="Ygrave" unicode="&#x1ef2;" horiz-adv-x="1224" 
d="M537 0v639l-490 825h201l383 -680l368 680h179l-463 -827v-637h-178zM582 1579l-201 260h213l115 -260h-127z" />
    <glyph glyph-name="ygrave" unicode="&#x1ef3;" horiz-adv-x="1083" 
d="M268 -373l203 484l-420 960h182l328 -768l297 768h174l-592 -1444h-172zM498 1255l-213 301h213l127 -301h-127z" />
    <glyph glyph-name="uni2009" unicode="&#x2009;" horiz-adv-x="225" 
 />
    <glyph glyph-name="endash" unicode="&#x2013;" horiz-adv-x="1077" 
d="M92 494v143h893v-143h-893z" />
    <glyph glyph-name="emdash" unicode="&#x2014;" horiz-adv-x="1812" 
d="M92 494v143h1628v-143h-1628z" />
    <glyph glyph-name="quoteleft" unicode="&#x2018;" horiz-adv-x="522" 
d="M244 999l-162 74l240 414l104 -53z" />
    <glyph glyph-name="quoteright" unicode="&#x2019;" horiz-adv-x="522" 
d="M201 999l-105 54l183 434l161 -74z" />
    <glyph glyph-name="quotesinglbase" unicode="&#x201a;" horiz-adv-x="522" 
d="M201 -233l-105 53l183 434l161 -74z" />
    <glyph glyph-name="quotedblleft" unicode="&#x201c;" horiz-adv-x="884" 
d="M244 999l-162 74l240 414l104 -53zM606 999l-162 74l240 414l104 -53z" />
    <glyph glyph-name="quotedblright" unicode="&#x201d;" horiz-adv-x="884" 
d="M201 999l-105 54l183 434l161 -74zM563 999l-104 54l182 434l162 -74z" />
    <glyph glyph-name="quotedblbase" unicode="&#x201e;" horiz-adv-x="884" 
d="M201 -233l-105 53l183 434l161 -74zM563 -233l-104 53l182 434l162 -74z" />
    <glyph glyph-name="dagger" unicode="&#x2020;" horiz-adv-x="765" 
d="M307 436v627h-237v137h237v264h154v-264h235v-137h-235v-627h-154z" />
    <glyph glyph-name="daggerdbl" unicode="&#x2021;" horiz-adv-x="765" 
d="M307 838v225h-237v137h237v264h154v-264h235v-137h-235v-225h235v-138h-235v-264h-154v264h-237v138h237z" />
    <glyph glyph-name="bullet" unicode="&#x2022;" horiz-adv-x="679" 
d="M340 389q-101 0 -169.5 69.5t-68.5 168.5t68.5 168t169.5 69q102 0 170 -69t68 -168t-68 -168.5t-170 -69.5z" />
    <glyph glyph-name="ellipsis" unicode="&#x2026;" horiz-adv-x="1650" 
d="M289 -10q-54 0 -92.5 38t-38.5 93t38.5 93t92.5 38t92.5 -38t38.5 -93t-38.5 -93t-92.5 -38zM825 -10q-54 0 -92.5 38t-38.5 93t38.5 93t92.5 38t92.5 -38t38.5 -93t-38.5 -93t-92.5 -38zM1362 -10q-54 0 -92.5 38t-38.5 93t38.5 93t92.5 38t92.5 -38t38.5 -93t-38.5 -93
t-92.5 -38z" />
    <glyph glyph-name="perthousand" unicode="&#x2030;" horiz-adv-x="2306" 
d="M395 940q79 0 125.5 54.5t46.5 148.5q0 92 -47 147.5t-125 55.5t-125 -54t-47 -151q0 -95 47 -148t125 -53zM395 809q-129 0 -227 95.5t-98 234.5q0 145 96.5 241.5t228.5 96.5q134 0 230 -95.5t96 -238.5t-97.5 -238.5t-228.5 -95.5zM258 0l895 1464h156l-895 -1464
h-156zM1157 115q79 0 125.5 54t46.5 148q0 92 -47 147.5t-125 55.5t-125 -54t-47 -151q0 -95 47 -147.5t125 -52.5zM1157 -16q-130 0 -228 95t-98 234q0 145 97 241.5t229 96.5q134 0 230 -95.5t96 -238.5t-97.5 -238t-228.5 -95zM1911 115q79 0 125.5 54t46.5 148
q0 92 -47 147.5t-125 55.5t-125 -54t-47 -151q0 -95 47 -147.5t125 -52.5zM1911 -16q-130 0 -228 95t-98 234q0 145 97 241.5t229 96.5q134 0 229.5 -95.5t95.5 -238.5t-97 -238t-228 -95z" />
    <glyph glyph-name="uni2032" unicode="&#x2032;" horiz-adv-x="434" 
d="M94 963l51 501h185l-113 -501h-123z" />
    <glyph glyph-name="uni2033" unicode="&#x2033;" horiz-adv-x="768" 
d="M94 963l51 501h185l-113 -501h-123zM428 963l51 501h185l-113 -501h-123z" />
    <glyph glyph-name="guilsinglleft" unicode="&#x2039;" horiz-adv-x="659" 
d="M387 170l-266 365l266 364h168l-256 -364l256 -365h-168z" />
    <glyph glyph-name="guilsinglright" unicode="&#x203a;" horiz-adv-x="659" 
d="M104 170l256 365l-256 364h168l267 -364l-267 -365h-168z" />
    <glyph glyph-name="fraction" unicode="&#x2044;" horiz-adv-x="231" 
d="M-471 0l1038 1464h135l-1038 -1464h-135z" />
    <glyph glyph-name="Euro" unicode="&#x20ac;" horiz-adv-x="1380" 
d="M66 807v119h151q13 119 54.5 219.5t109.5 176t166 118.5t217 43q211 0 343 -118.5t157 -330.5h-168q-22 147 -109.5 228t-222.5 81q-161 0 -256.5 -111t-116.5 -306h490l-23 -119h-471v-160h440l-22 -119h-412q21 -192 115.5 -296.5t259.5 -104.5q143 0 232 85.5
t114 250.5h166q-25 -226 -161 -353.5t-351 -127.5q-229 0 -376 151t-175 395h-151v119h145v160h-145z" />
    <glyph glyph-name="trademark" unicode="&#x2122;" horiz-adv-x="1466" 
d="M700 805v659h158l184 -463l181 463h159v-659h-114v514l-211 -514h-39l-213 514v-514h-105zM270 805v569h-200v90h514v-90h-199v-569h-115z" />
    <glyph glyph-name="onethird" unicode="&#x2153;" horiz-adv-x="1480" 
d="M221 764v565l-166 -110v120l183 125h122v-700h-139zM92 0l1038 1464h136l-1039 -1464h-135zM1147 -10q-125 0 -195 61t-73 166h125q14 -125 139 -125q64 0 96.5 29.5t32.5 81.5q0 110 -123 110h-53v97h51q115 0 115 100q0 43 -27.5 69.5t-79.5 26.5q-54 0 -87.5 -29.5
t-39.5 -82.5h-125q6 96 74 155.5t180 59.5q109 0 172.5 -53.5t63.5 -135.5q0 -109 -117 -151q63 -14 100 -57.5t37 -110.5q0 -98 -71.5 -154.5t-194.5 -56.5z" />
    <glyph glyph-name="twothirds" unicode="&#x2154;" horiz-adv-x="1556" 
d="M23 764v22l262 279q110 113 110 199q0 48 -26.5 75t-75.5 27q-106 0 -123 -135h-125q6 115 72.5 178.5t179.5 63.5q109 0 171 -56t62 -151q0 -118 -135 -250l-149 -148h291v-104h-514zM197 0l1038 1464h135l-1038 -1464h-135zM1223 -10q-125 0 -195.5 61t-73.5 166h125
q14 -125 140 -125q64 0 96.5 29.5t32.5 81.5q0 110 -123 110h-54v97h52q114 0 114 100q0 43 -27 69.5t-79 26.5q-54 0 -87.5 -29.5t-39.5 -82.5h-125q6 96 74 155.5t180 59.5q109 0 172 -53.5t63 -135.5q0 -110 -116 -151q63 -14 100 -57.5t37 -110.5q0 -98 -71.5 -154.5
t-194.5 -56.5z" />
    <glyph glyph-name="oneeighth" unicode="&#x215b;" horiz-adv-x="1462" 
d="M221 764v565l-166 -110v120l183 125h122v-700h-139zM92 0l1038 1464h136l-1039 -1464h-135zM1133 -10q-112 0 -188.5 54.5t-76.5 152.5q0 66 34.5 111.5t94.5 66.5q-102 44 -102 145q0 86 70.5 137.5t169.5 51.5t168 -51t69 -136q0 -100 -104 -145q131 -50 131 -176
q0 -99 -75.5 -155t-190.5 -56zM1135 92q56 0 91.5 31t35.5 88q0 54 -35.5 85.5t-91.5 31.5q-55 0 -91 -32t-36 -87t36 -86t91 -31zM1135 416q48 0 77 26.5t29 71.5q0 43 -30.5 69.5t-75.5 26.5q-47 0 -78 -26.5t-31 -71.5q0 -44 32 -70t77 -26z" />
    <glyph glyph-name="threeeighths" unicode="&#x215c;" horiz-adv-x="1523" 
d="M317 754q-125 0 -195 61t-73 166h125q14 -125 139 -125q64 0 96.5 29.5t32.5 81.5q0 110 -123 110h-53v97h51q115 0 115 100q0 43 -27 69.5t-79 26.5q-54 0 -87.5 -30t-39.5 -83h-125q6 96 74 156t180 60q109 0 172 -53.5t63 -135.5q0 -109 -117 -151q63 -14 100.5 -57.5
t37.5 -110.5q0 -98 -72 -154.5t-195 -56.5zM178 0l1039 1464h135l-1039 -1464h-135zM1194 -10q-112 0 -188 54.5t-76 152.5q0 66 34.5 111.5t94.5 66.5q-103 44 -103 145q0 86 70.5 137.5t169.5 51.5t168.5 -51t69.5 -136q0 -100 -105 -145q131 -50 131 -176
q0 -99 -75.5 -155t-190.5 -56zM1196 92q56 0 91.5 31t35.5 88q0 54 -35.5 85.5t-91.5 31.5q-55 0 -91 -32t-36 -87t36 -86t91 -31zM1196 416q48 0 77.5 26.5t29.5 71.5q0 43 -31 69.5t-76 26.5q-47 0 -78 -26.5t-31 -71.5q0 -44 32 -70t77 -26z" />
    <glyph glyph-name="fiveeighths" unicode="&#x215d;" horiz-adv-x="1511" 
d="M303 754q-120 0 -184 58t-70 155h129q8 -53 35 -80t90 -27q56 0 87.5 36.5t31.5 100.5q0 62 -32 97.5t-89 35.5q-94 0 -143 -59h-74l8 393h430v-106h-325l-2 -189q54 62 153 62q97 0 156 -63.5t59 -172.5q0 -111 -71.5 -176t-188.5 -65zM164 0l1038 1464h135l-1038 -1464
h-135zM1182 -10q-112 0 -188 54.5t-76 152.5q0 66 34.5 111.5t94.5 66.5q-103 44 -103 145q0 86 70.5 137.5t169.5 51.5t168 -51t69 -136q0 -100 -104 -145q131 -50 131 -176q0 -99 -75.5 -155t-190.5 -56zM1184 92q56 0 91.5 31t35.5 88q0 54 -35.5 85.5t-91.5 31.5
q-55 0 -91 -32t-36 -87t36 -86t91 -31zM1184 416q48 0 77 26.5t29 71.5q0 43 -30.5 69.5t-75.5 26.5q-47 0 -78 -26.5t-31 -71.5q0 -44 32 -70t77 -26z" />
    <glyph glyph-name="seveneighths" unicode="&#x215e;" horiz-adv-x="1454" 
d="M141 764l221 588h-321v112h494v-16l-254 -684h-140zM68 0l1038 1464h135l-1038 -1464h-135zM1124 -10q-112 0 -188 54.5t-76 152.5q0 66 34.5 111.5t94.5 66.5q-102 44 -102 145q0 86 70.5 137.5t168.5 51.5q99 0 168.5 -51t69.5 -136q0 -100 -104 -145q131 -50 131 -176
q0 -99 -76 -155t-191 -56zM1126 92q56 0 91.5 31t35.5 88q0 54 -35.5 85.5t-91.5 31.5q-55 0 -91 -32t-36 -87t36 -86t91 -31zM1126 416q48 0 77.5 26.5t29.5 71.5q0 43 -31 69.5t-76 26.5q-47 0 -77.5 -26.5t-30.5 -71.5q0 -44 31.5 -70t76.5 -26z" />
    <glyph glyph-name="minus" unicode="&#x2212;" horiz-adv-x="1062" 
d="M74 629v143h915v-143h-915z" />
    <glyph glyph-name="approxequal" unicode="&#x2248;" horiz-adv-x="1019" 
d="M90 340q10 118 73 181t152 63q66 0 141.5 -22.5t142 -45t110.5 -22.5q35 0 61.5 23.5t30.5 70.5h129q-9 -119 -71 -181.5t-148 -62.5q-69 0 -146 22.5t-143 45t-109 22.5q-35 0 -61 -24t-33 -70h-129zM90 702q10 118 73 181t152 63q66 0 141.5 -22.5t142 -45t110.5 -22.5
q35 0 61.5 23.5t30.5 70.5h129q-9 -119 -71 -181t-148 -62q-69 0 -146 22.5t-143 45t-109 22.5q-35 0 -61 -24.5t-33 -70.5h-129z" />
    <glyph glyph-name="notequal" unicode="&#x2260;" horiz-adv-x="991" 
d="M82 770v148h440l82 210h156l-82 -210h231v-148h-288l-84 -221h372v-148h-430l-82 -211h-155l82 211h-242v148h299l84 221h-383z" />
    <glyph glyph-name="lessequal" unicode="&#x2264;" horiz-adv-x="1032" 
d="M895 244l-786 420v41l786 419v-163l-533 -277l533 -276v-164zM109 0v143h786v-143h-786z" />
    <glyph glyph-name="greaterequal" unicode="&#x2265;" horiz-adv-x="1032" 
d="M137 244v164l533 276l-533 277v163l787 -419v-41zM137 0v143h787v-143h-787z" />
    <glyph glyph-name="uni24C5" unicode="&#x24c5;" horiz-adv-x="1728" 
d="M623 332v809h262q142 0 221.5 -63t79.5 -187v-6q0 -124 -79.5 -186t-215.5 -62h-113v-305h-155zM778 750h107q74 0 112.5 34.5t38.5 100.5v6q0 129 -151 129h-107v-270zM862 68q130 0 249.5 49.5t209.5 135.5t143.5 212t53.5 270q0 190 -89 342.5t-238 236t-325 83.5
q-178 0 -327.5 -84t-238.5 -237.5t-89 -344.5q0 -144 53.5 -269.5t143.5 -211t208 -134t246 -48.5zM862 -18q-205 0 -377 98t-272 270.5t-100 380.5q0 154 59 293.5t159 240t240 159.5t295 59q157 0 296.5 -59t238.5 -159t157 -238t58 -292q0 -157 -59 -297t-159.5 -240
t-240 -158t-295.5 -58z" />
    <glyph glyph-name="f_i" unicode="&#xfb01;" horiz-adv-x="1222" 
d="M209 0v928h-154v143h154v174q0 165 79.5 254.5t235.5 89.5q73 0 117 -16v-143q-47 18 -111 18q-151 0 -151 -184v-193h262v-143h-262v-928h-170zM877 0v1071h170v-1071h-170zM958 1294q-46 0 -79 33.5t-33 79.5t33 79.5t79 33.5t79.5 -33.5t33.5 -79.5t-33.5 -79.5
t-79.5 -33.5z" />
    <glyph glyph-name="f_l" unicode="&#xfb02;" horiz-adv-x="1224" 
d="M209 0v928h-154v143h154v174q0 165 79.5 254.5t235.5 89.5q73 0 117 -16v-143q-47 18 -111 18q-151 0 -151 -184v-193h262v-143h-262v-928h-170zM877 0v1583h172v-1583h-172z" />
    <glyph glyph-name="space_uni0326" horiz-adv-x="819" 
d="M367 -451l-105 54l119 321l164 -49z" />
    <glyph glyph-name="caron.alt" horiz-adv-x="819" 
d="M373 1225l24 358h193l-98 -358h-119z" />
    <glyph glyph-name="space_uni0326.alt" horiz-adv-x="819" 
d="M471 1233l-164 49l178 326l105 -54z" />
    <glyph glyph-name="grave.uc" horiz-adv-x="819" 
d="M362 1579l-200 260h213l114 -260h-127z" />
    <glyph glyph-name="dieresis.uc" horiz-adv-x="819" 
d="M201 1616q-44 0 -76.5 32t-32.5 76t32.5 76.5t76.5 32.5t76 -32.5t32 -76.5t-32 -76t-76 -32zM616 1616q-44 0 -76 32t-32 76t32 76.5t76 32.5t76.5 -32.5t32.5 -76.5t-32.5 -76t-76.5 -32z" />
    <glyph glyph-name="macron.uc" horiz-adv-x="819" 
d="M137 1610v131h545v-131h-545z" />
    <glyph glyph-name="acute.uc" horiz-adv-x="819" 
d="M330 1579l114 260h213l-200 -260h-127z" />
    <glyph glyph-name="circumflex.uc" horiz-adv-x="819" 
d="M113 1579l221 260h153l220 -260h-125l-174 119l-175 -119h-120z" />
    <glyph glyph-name="caron.uc" horiz-adv-x="819" 
d="M332 1579l-219 260h125l174 -119l174 119h121l-222 -260h-153z" />
    <glyph glyph-name="breve.uc" horiz-adv-x="819" 
d="M406 1571q-111 0 -188 76.5t-83 193.5h135q23 -131 136 -131q121 0 147 131h131q-6 -116 -86.5 -193t-191.5 -77z" />
    <glyph glyph-name="dotaccent.uc" horiz-adv-x="819" 
d="M410 1612q-46 0 -79.5 33t-33.5 79t33.5 79.5t79.5 33.5t79 -33.5t33 -79.5t-33 -79t-79 -33z" />
    <glyph glyph-name="ring.uc" horiz-adv-x="819" 
d="M410 1649q47 0 77.5 33.5t30.5 84.5t-30.5 85t-77.5 34t-78 -34t-31 -85t31 -84.5t78 -33.5zM410 1554q-91 0 -155.5 62.5t-64.5 150.5t64.5 150.5t155.5 62.5t155 -62.5t64 -150.5t-64 -150.5t-155 -62.5z" />
    <glyph glyph-name="tilde.uc" horiz-adv-x="819" 
d="M520 1585q-37 0 -80 22t-80 44t-61 22q-29 0 -51.5 -26t-30.5 -66h-123q12 108 69.5 173t137.5 65q37 0 79 -22t79 -44t61 -22q29 0 51.5 26t30.5 66h123q-12 -108 -69 -173t-136 -65z" />
    <glyph glyph-name="hungarumlaut.uc" horiz-adv-x="819" 
d="M197 1579l75 260h195l-148 -260h-122zM512 1579l76 260h194l-147 -260h-123z" />
    <glyph glyph-name="idotaccent" horiz-adv-x="522" 
d="M258 1294q-46 0 -79.5 33.5t-33.5 79.5t33.5 79.5t79.5 33.5t79.5 -33.5t33.5 -79.5t-33.5 -79.5t-79.5 -33.5zM176 0v1071h170v-1071h-170z" />
    <glyph glyph-name="registered.alt" horiz-adv-x="1728" 
d="M588 334v809h276q140 0 220.5 -59t80.5 -179v-4q0 -90 -48.5 -143.5t-129.5 -73.5l225 -350h-161l-211 325h-99v-325h-153zM741 768h121q150 0 150 127v6q0 123 -150 123h-121v-256zM862 68q130 0 249.5 49.5t209.5 135.5t143.5 212t53.5 270q0 190 -89 342.5t-238 236
t-325 83.5q-178 0 -327.5 -84t-238.5 -237.5t-89 -344.5q0 -144 53.5 -269.5t143.5 -211t208 -134t246 -48.5zM862 -18q-205 0 -377 98t-272 270.5t-100 380.5q0 154 59 293.5t159 240t240 159.5t295 59q157 0 296.5 -59t238.5 -159t157 -238t58 -292q0 -157 -59 -297
t-159.5 -240t-240 -158t-295.5 -58z" />
    <glyph glyph-name="dollar.old" horiz-adv-x="1245" 
d="M565 -268v252q-433 32 -475 448h166q9 -66 23.5 -112t47 -92t92 -73.5t146.5 -35.5v553q-210 39 -314 125t-104 256q0 156 116.5 264.5t301.5 118.5v180h119v-182q180 -19 286.5 -118t125.5 -269h-154q-23 114 -86 174.5t-172 74.5v-495q113 -19 191.5 -47.5t137 -74.5
t86 -114.5t27.5 -163.5q0 -169 -124.5 -286.5t-317.5 -130.5v-252h-119zM961 389q0 113 -59.5 171.5t-217.5 90.5v-532q121 12 199 86.5t78 183.5zM303 1069q0 -50 10.5 -85.5t38.5 -67t80 -54t133 -39.5v477q-122 -10 -192 -73.5t-70 -157.5z" />
    <glyph glyph-name="Euro.old" horiz-adv-x="1339" 
d="M63 782v115h146q17 156 81.5 276t181 192.5t269.5 72.5q204 0 332.5 -114.5t151.5 -319.5h-162q-22 142 -106.5 220.5t-215.5 78.5q-157 0 -249 -108t-113 -298h475l-23 -115h-456v-153h428l-23 -117h-399q21 -187 112 -288t252 -101q139 0 225 83t111 243h160
q-23 -219 -155.5 -343t-340.5 -124q-224 0 -365.5 146t-168.5 384h-148v117h142v153h-142z" />
    <glyph glyph-name="sterling.old" horiz-adv-x="1183" 
d="M96 627v123h127q-35 147 -35 278q0 181 125.5 295.5t313.5 114.5t299 -101t125 -274h-166q-23 119 -81.5 176t-176.5 57q-116 0 -189 -74t-73 -196q0 -127 32 -276h424v-123h-397q31 -155 31 -262q0 -66 -27 -132q55 -13 175.5 -59.5t166.5 -46.5q84 0 130 39t52 131h144
q-8 -140 -88.5 -227.5t-216.5 -87.5q-59 0 -126.5 19.5t-117 42.5t-105 42.5t-92.5 19.5q-61 0 -92.5 -31t-36.5 -75h-145q4 48 25 96t68 90.5t110 55.5q24 60 24 123q0 93 -47 262h-160z" />
    <glyph glyph-name="yen.old" horiz-adv-x="1144" 
d="M166 559v115h309l-420 747h187l348 -645l332 645h168l-398 -747h312v-115h-334v-156h334v-114h-334v-289h-170v289h-334v114h334v156h-334z" />
    <glyph glyph-name="zero.old" horiz-adv-x="1316" 
d="M662 127q177 0 270.5 121.5t93.5 351.5v74q0 222 -97 346.5t-270 124.5q-174 0 -271 -122.5t-97 -348.5v-76q0 -227 98.5 -349t272.5 -122zM662 -18q-246 0 -397.5 169t-151.5 445v76q0 282 149 448t397 166q249 0 397 -166.5t148 -443.5v-76q0 -282 -147 -450t-395 -168
z" />
    <glyph glyph-name="one.old" horiz-adv-x="792" 
d="M395 0v1094l-323 -230v164l336 240h161v-1268h-174z" />
    <glyph glyph-name="two.old" horiz-adv-x="1107" 
d="M47 0v41l514 479q62 58 98.5 95.5t74 87.5t54.5 99.5t17 104.5q0 110 -69 175t-189 65q-258 0 -299 -313h-158q18 204 139 328t318 124q196 0 316 -105t120 -274q0 -31 -6.5 -61.5t-13.5 -55t-26.5 -56.5t-31.5 -52t-42.5 -54t-45 -50.5t-55 -55t-55.5 -53t-62 -57.5
l-289 -269h639v-143h-948z" />
    <glyph glyph-name="three.old" horiz-adv-x="1214" 
d="M590 -215q-227 0 -361.5 126.5t-142.5 324.5h162q13 -144 97 -228t249 -84q167 0 248.5 77.5t81.5 215.5q0 143 -78.5 212t-235.5 69h-102v145h94q272 0 272 256q0 112 -65.5 179t-194.5 67q-135 0 -219 -76t-98 -205h-154q8 179 137.5 300.5t333.5 121.5
q102 0 184.5 -31t135.5 -84.5t81.5 -122t28.5 -145.5q0 -231 -223 -323q281 -74 281 -363q0 -198 -141.5 -315t-370.5 -117z" />
    <glyph glyph-name="four.old" horiz-adv-x="1263" 
d="M813 -199v316h-752v57l689 1092h233v-1012h207v-137h-207v-316h-170zM281 254h532v876z" />
    <glyph glyph-name="five.old" horiz-adv-x="1165" 
d="M565 -215q-220 0 -340.5 108.5t-136.5 290.5h162q22 -128 91.5 -194t221.5 -66q143 0 227 93.5t84 254.5q0 150 -81.5 242t-214.5 92q-120 0 -201 -34.5t-141 -102.5h-62v799h803v-150h-662v-469q46 43 122.5 69.5t172.5 26.5q194 0 318.5 -129.5t124.5 -343.5
q0 -146 -66.5 -258t-176.5 -170.5t-245 -58.5z" />
    <glyph glyph-name="six.old" horiz-adv-x="1251" 
d="M641 -18q-114 0 -204 33.5t-148.5 92t-97 142.5t-54.5 178.5t-16 206.5v61q0 190 41 340t115.5 247.5t177.5 148.5t227 51q171 0 283 -89t141 -259h-166q-26 104 -89 155t-181 51q-168 0 -268.5 -153.5t-106.5 -448.5q52 87 150.5 140t220.5 53q211 0 342 -134.5
t131 -336.5q0 -216 -136 -347.5t-362 -131.5zM641 119q142 0 231 91.5t89 242.5q0 155 -88 248.5t-234 93.5q-145 0 -239.5 -89.5t-94.5 -228.5q0 -170 93 -264t243 -94z" />
    <glyph glyph-name="seven.old" horiz-adv-x="1071" 
d="M248 -199l553 1325h-742v140h959v-25l-592 -1440h-178z" />
    <glyph glyph-name="eight.old" horiz-adv-x="1218" 
d="M610 -18q-92 0 -180 28t-160.5 79.5t-116.5 135t-44 185.5q0 140 79.5 234.5t206.5 137.5q-107 39 -169 121t-62 195q0 88 38 162.5t101 122t142.5 74t164.5 26.5q115 0 215.5 -45t165 -133.5t64.5 -202.5q0 -113 -63.5 -193.5t-172.5 -124.5q134 -46 212.5 -140
t78.5 -230q0 -103 -43 -187t-114.5 -136.5t-159.5 -80.5t-183 -28zM610 125q140 0 231 79t91 216q0 135 -91 211t-227 76q-137 0 -232 -78t-95 -213q0 -134 94.5 -212.5t228.5 -78.5zM616 846q119 0 191 68t72 186q0 108 -77 177t-192 69q-117 0 -193.5 -68t-76.5 -182
q0 -115 79.5 -182.5t196.5 -67.5z" />
    <glyph glyph-name="nine.old" horiz-adv-x="1251" 
d="M582 -215q-192 0 -311 99.5t-146 269.5h166q58 -228 305 -228q190 0 272 145t88 457q-52 -87 -150 -139.5t-220 -52.5q-211 0 -342 134.5t-131 336.5q0 216 135.5 347.5t361.5 131.5q114 0 204 -33.5t148.5 -92t97 -142.5t54.5 -178.5t16 -206.5v-62q0 -388 -138.5 -587
t-409.5 -199zM612 473q145 0 239.5 89.5t94.5 228.5q0 170 -93 264t-243 94q-142 0 -230.5 -91.5t-88.5 -242.5q0 -155 87.5 -248.5t233.5 -93.5z" />
    <glyph glyph-name="dollar.tab" 
d="M557 -276v260q-445 29 -491 462h172q9 -69 24.5 -118t49 -96.5t95 -75.5t150.5 -35v571q-216 41 -324 130.5t-108 264.5q0 159 121 270t311 124v184h121v-186q186 -17 296 -121t130 -279h-160q-23 118 -87.5 181.5t-178.5 78.5v-512q118 -20 199.5 -49.5t141 -77.5
t88 -119t28.5 -169q0 -174 -127 -293.5t-330 -134.5v-260h-121zM965 401q0 117 -61.5 177.5t-225.5 93.5v-551q130 15 208.5 91t78.5 189zM287 1102q0 -52 11 -88t39.5 -69t82.5 -56.5t137 -40.5v493q-128 -10 -199 -76t-71 -163z" />
    <glyph glyph-name="Euro.tab" 
d="M31 807v119h125q15 260 147.5 408.5t358.5 148.5q189 0 304 -115t140 -328h-168q-22 151 -89.5 227t-186.5 76q-307 0 -328 -417h450l-22 -119h-430v-160h399l-22 -119h-375q11 -203 92 -302t240 -99q128 0 201 80.5t98 247.5h165q-25 -226 -147.5 -349.5t-316.5 -123.5
q-224 0 -358.5 142.5t-149.5 403.5h-127v119h125v160h-125z" />
    <glyph glyph-name="sterling.tab" 
d="M102 645v127h134q-37 159 -37 289q0 185 128.5 303.5t321.5 118.5q194 0 309 -104.5t129 -282.5h-172q-23 123 -83 182t-183 59q-119 0 -194.5 -76.5t-75.5 -201.5q0 -120 35 -287h436v-127h-406q31 -159 31 -272q0 -68 -26 -131q51 -13 176 -62t174 -49q86 0 133 40.5
t53 135.5h150q-9 -146 -92 -235.5t-224 -89.5q-61 0 -130.5 20t-120.5 44.5t-108 44.5t-95 20q-62 0 -95.5 -32.5t-38.5 -78.5h-149q3 36 16.5 73.5t38 74t65.5 63.5t93 37q24 52 24 127q0 99 -49 270h-168z" />
    <glyph glyph-name="yen.tab" 
d="M197 575v119h319l-414 770h193l338 -663l321 663h172l-389 -770h322v-119h-344v-159h344v-119h-344v-297h-174v297h-344v119h344v159h-344z" />
    <glyph glyph-name="zero.tab" 
d="M623 129q172 0 246.5 109.5t74.5 365.5v266q0 469 -326 469q-167 0 -249 -118t-82 -365v-256q0 -249 84.5 -360t251.5 -111zM623 -18q-237 0 -378 158.5t-141 457.5v256q0 306 137 467.5t377 161.5t373 -158.5t133 -456.5v-266q0 -304 -131 -462t-370 -158z" />
    <glyph glyph-name="one.tab" 
d="M643 0v1284l-420 -336v166l412 350h186v-1464h-178z" />
    <glyph glyph-name="two.tab" 
d="M86 0v41l582 612q105 111 158 213.5t53 210.5q0 123 -69.5 192.5t-193.5 69.5q-268 0 -309 -325h-166q17 217 142.5 343t332.5 126q203 0 323 -111.5t120 -300.5q0 -244 -295 -532l-404 -394h707v-145h-981z" />
    <glyph glyph-name="three.tab" 
d="M590 -18q-223 0 -357.5 126.5t-142.5 323.5h164q13 -141 94.5 -224t245.5 -83q167 0 248.5 74.5t81.5 208.5q0 284 -310 284h-110v150h102q141 0 211 64t70 186q0 109 -67 177t-195 68q-135 0 -220.5 -75t-99.5 -201h-155q8 178 139.5 300t335.5 122q101 0 185 -32
t138 -85.5t83.5 -123t29.5 -146.5q0 -224 -238 -320q133 -35 208 -127.5t75 -240.5q0 -197 -142.5 -311.5t-373.5 -114.5z" />
    <glyph glyph-name="four.tab" 
d="M797 0v307h-713v58l649 1099h238v-1011h172v-146h-172v-307h-174zM305 453h492v866z" />
    <glyph glyph-name="five.tab" 
d="M590 -18q-227 0 -349.5 112t-138.5 301h170q12 -65 31 -110.5t54 -83.5t92.5 -57t138.5 -19q150 0 235.5 94.5t85.5 259.5q0 155 -84 248.5t-223 93.5q-122 0 -203 -35.5t-143 -105.5h-66v784h824v-153h-676v-447q108 101 299 101q200 0 327.5 -132.5t127.5 -353.5
q0 -150 -67.5 -264.5t-181 -173.5t-253.5 -59z" />
    <glyph glyph-name="six.tab" 
d="M631 -18q-117 0 -208 34.5t-150.5 93.5t-98 144.5t-54.5 182t-16 210.5v35q0 384 157 592.5t417 208.5q174 0 286.5 -90.5t141.5 -264.5h-170q-26 106 -88.5 157.5t-181.5 51.5q-171 0 -275 -151t-110 -434q54 91 152.5 144.5t223.5 53.5q214 0 347 -137t133 -342
q0 -221 -137.5 -355t-368.5 -134zM631 121q145 0 234 93.5t89 248.5q0 159 -88 253.5t-237 94.5q-148 0 -242 -91t-94 -233q0 -175 93 -270.5t245 -95.5z" />
    <glyph glyph-name="seven.tab" 
d="M340 0l539 1321h-736v143h965v-24l-586 -1440h-182z" />
    <glyph glyph-name="eight.tab" 
d="M616 -18q-92 0 -180.5 27.5t-161.5 79.5t-118 137t-45 190q0 141 76 238t200 141q-105 40 -163 120t-58 187q0 86 38.5 159.5t102 121t144 74t165.5 26.5q115 0 216.5 -45.5t167 -133.5t65.5 -198q0 -107 -60 -185t-165 -124q131 -47 205.5 -143.5t74.5 -233.5
q0 -106 -43.5 -191.5t-116 -138t-161 -80.5t-183.5 -28zM616 127q141 0 231.5 79t90.5 220q0 139 -90 215t-227 76q-138 0 -233 -77.5t-95 -217.5q0 -138 94 -216.5t229 -78.5zM623 858q119 0 190.5 65.5t71.5 180.5q0 105 -77 172t-192 67q-117 0 -193.5 -66t-76.5 -177
q0 -112 80 -177t197 -65z" />
    <glyph glyph-name="nine.tab" 
d="M573 -16q-200 0 -320.5 98.5t-150.5 277.5h172q26 -113 97.5 -172t206.5 -59q177 0 274 147t100 435q-53 -90 -153.5 -142.5t-225.5 -52.5q-212 0 -346.5 135.5t-134.5 343.5q0 221 137.5 355.5t368.5 134.5q258 0 392 -169t134 -487v-92q0 -363 -144 -558t-407 -195z
M600 655q148 0 242 88t94 230q0 176 -93 274.5t-245 98.5q-145 0 -234.5 -93.5t-89.5 -248.5q0 -159 88.5 -254t237.5 -95z" />
    <glyph glyph-name="cent.tab" 
d="M584 -276v262q-203 21 -329 166t-126 372v17q0 223 128.5 371.5t326.5 172.5v203h121v-203q164 -13 275.5 -104t133.5 -266h-168q-17 104 -81 161t-160 68v-817q103 14 175 81t83 177h157q-15 -162 -129.5 -273t-285.5 -126v-262h-121zM305 524q0 -171 74 -273t205 -124
v815q-126 -24 -202.5 -130.5t-76.5 -270.5v-17z" />
    <glyph glyph-name="percent.tab" horiz-adv-x="1638" 
d="M422 918q84 0 132 55t48 157q0 98 -48.5 155.5t-131.5 57.5t-131.5 -56t-48.5 -159q0 -102 48 -156t132 -54zM422 784q-134 0 -235 98t-101 244q0 149 100 250t236 101q138 0 237 -100t99 -247q0 -149 -100 -247.5t-236 -98.5zM293 0l895 1464h155l-894 -1464h-156z
M1217 117q84 0 132 55.5t48 157.5q0 98 -48.5 155.5t-131.5 57.5t-132 -56t-49 -159q0 -102 48.5 -156.5t132.5 -54.5zM1217 -16q-134 0 -235 98t-101 244q0 149 100 249.5t236 100.5q138 0 236.5 -99.5t98.5 -246.5q0 -149 -99.5 -247.5t-235.5 -98.5z" />
    <glyph glyph-name="perthousand.tab" horiz-adv-x="2048" 
d="M369 940q60 0 92.5 53.5t32.5 149.5q0 94 -33 148.5t-92 54.5q-60 0 -92.5 -53.5t-32.5 -151.5q0 -97 32.5 -149t92.5 -52zM369 809q-113 0 -195 90t-82 240q0 156 81 247t196 91q117 0 196.5 -90t79.5 -244q0 -153 -81 -243.5t-195 -90.5zM186 0l895 1464h156
l-895 -1464h-156zM1049 115q60 0 92.5 53t32.5 149q0 94 -33 148.5t-92 54.5q-60 0 -92.5 -53.5t-32.5 -151.5q0 -97 32.5 -148.5t92.5 -51.5zM1049 -16q-113 0 -195 89.5t-82 239.5q0 156 81 247t196 91q117 0 196.5 -90t79.5 -244q0 -153 -80.5 -243t-195.5 -90zM1679 115
q60 0 92.5 53t32.5 149q0 94 -33 148.5t-92 54.5q-60 0 -92.5 -53.5t-32.5 -151.5q0 -97 32.5 -148.5t92.5 -51.5zM1679 -16q-113 0 -194.5 89.5t-81.5 239.5q0 156 80.5 247t195.5 91q117 0 197 -90t80 -244q0 -153 -81 -243t-196 -90z" />
    <glyph glyph-name="plus.tab" 
d="M541 215v414h-383v143h383v414h149v-414h383v-143h-383v-414h-149z" />
    <glyph glyph-name="minus.tab" 
d="M158 629v143h915v-143h-915z" />
    <glyph glyph-name="multiply.tab" 
d="M299 268l-96 99l315 315l-315 315l96 99l315 -318l316 318l98 -99l-315 -315l315 -315l-98 -99l-316 318z" />
    <glyph glyph-name="divide.tab" 
d="M614 182q-54 0 -92.5 38t-38.5 93t38.5 93t92.5 38t92.5 -38t38.5 -93t-38.5 -93t-92.5 -38zM158 629v143h915v-143h-915zM614 956q-54 0 -92.5 38t-38.5 93t38.5 93.5t92.5 38.5t92.5 -38.5t38.5 -93.5t-38.5 -93t-92.5 -38z" />
    <glyph glyph-name="equal.tab" 
d="M201 401v148h827v-148h-827zM201 770v148h827v-148h-827z" />
    <glyph glyph-name="less.tab" 
d="M993 195l-786 444v41l786 444v-163l-538 -302l538 -301v-163z" />
    <glyph glyph-name="greater.tab" 
d="M236 195v163l538 301l-538 302v163l786 -444v-41z" />
    <glyph glyph-name="florin.tab" 
d="M227 707v139h240l47 311q51 326 346 326q75 0 139 -23v-143q-62 24 -135 24q-154 0 -182 -192l-47 -303h291v-139h-312l-163 -1080h-170l163 1080h-217z" />
    <glyph glyph-name="plusminus.tab" 
d="M541 297v373h-383v143h383v373h149v-373h383v-143h-383v-373h-149zM158 0v143h915v-143h-915z" />
    <glyph glyph-name="notequal.tab" 
d="M201 770v148h440l82 210h156l-82 -210h231v-148h-289l-84 -221h373v-148h-430l-82 -211h-156l82 211h-241v148h299l84 221h-383z" />
    <glyph glyph-name="approxequal.tab" 
d="M195 340q10 118 73 181t152 63q66 0 141.5 -22.5t141.5 -45t110 -22.5q35 0 61.5 23.5t30.5 70.5h129q-9 -119 -71 -181.5t-148 -62.5q-69 0 -146 22.5t-142.5 45t-108.5 22.5q-35 0 -61 -24t-33 -70h-129zM195 702q10 118 73 181t152 63q66 0 141.5 -22.5t141.5 -45
t110 -22.5q35 0 61.5 23.5t30.5 70.5h129q-9 -119 -71 -181t-148 -62q-69 0 -146 22.5t-142.5 45t-108.5 22.5q-35 0 -61 -24.5t-33 -70.5h-129z" />
    <glyph glyph-name="lessequal.tab" 
d="M993 244l-786 420v41l786 419v-163l-532 -277l532 -276v-164zM207 0v143h786v-143h-786z" />
    <glyph glyph-name="greaterequal.tab" 
d="M236 244v164l532 276l-532 277v163l786 -419v-41zM236 0v143h786v-143h-786z" />
    <glyph glyph-name="parenleft.tab" horiz-adv-x="614" 
d="M385 -303q-279 419 -279 942q0 525 279 944h170q-270 -432 -270 -944q0 -510 270 -942h-170z" />
    <glyph glyph-name="parenright.tab" horiz-adv-x="614" 
d="M59 -303q271 434 271 942q0 510 -271 944h170q279 -419 279 -944q0 -523 -279 -942h-170z" />
    <glyph glyph-name="bracketleft.tab" horiz-adv-x="614" 
d="M143 -303v1892h398v-135h-228v-1622h228v-135h-398z" />
    <glyph glyph-name="bracketright.tab" horiz-adv-x="614" 
d="M74 -303v135h227v1622h-227v135h397v-1892h-397z" />
    <glyph glyph-name="braceleft.tab" horiz-adv-x="614" 
d="M541 -301q-205 0 -295.5 101t-50.5 325l38 213q18 97 -21 157t-159 89v127q120 29 159 89t21 156l-38 213q-40 224 50.5 325t295.5 101v-129q-62 -1 -101.5 -15t-65 -48.5t-28 -92.5t9.5 -145l39 -235q18 -108 -34.5 -173t-165.5 -110q74 -30 119.5 -63.5t69 -89
t11.5 -129.5l-39 -236q-12 -87 -9.5 -145t28 -92.5t65 -48.5t101.5 -15v-129z" />
    <glyph glyph-name="braceright.tab" horiz-adv-x="614" 
d="M74 -301v129q62 1 101.5 15t64.5 48.5t27.5 92.5t-9.5 145l-39 236q-18 108 34.5 172t166.5 110q-55 22 -93.5 46t-67.5 57.5t-39 78.5t-1 101l39 235q12 87 9.5 145t-27.5 92.5t-64.5 48.5t-101.5 15v129q205 0 295.5 -101t50.5 -325l-39 -213q-18 -96 21 -156t159 -89
v-127q-120 -29 -159 -89t-21 -157l39 -213q40 -224 -50.5 -325t-295.5 -101z" />
    <glyph glyph-name="period.tab" horiz-adv-x="614" 
d="M307 -10q-54 0 -92.5 38t-38.5 93t38.5 93t92.5 38t92.5 -38t38.5 -93t-38.5 -93t-92.5 -38z" />
    <glyph glyph-name="comma.tab" horiz-adv-x="614" 
d="M203 -252l-111 57l197 449l166 -78z" />
    <glyph glyph-name="colon.tab" horiz-adv-x="614" 
d="M307 -10q-54 0 -92.5 38t-38.5 93t38.5 93t92.5 38t92.5 -38t38.5 -93t-38.5 -93t-92.5 -38zM307 598q-54 0 -92.5 38t-38.5 93t38.5 93t92.5 38t92.5 -38t38.5 -93t-38.5 -93t-92.5 -38z" />
    <glyph glyph-name="semicolon.tab" horiz-adv-x="614" 
d="M162 -252l-111 57l197 449l166 -78zM326 598q-54 0 -92.5 38t-38.5 93t38.5 93t92.5 38t92.5 -38t38.5 -93t-38.5 -93t-92.5 -38z" />
    <glyph glyph-name="space.tab" horiz-adv-x="614" 
 />
    <glyph glyph-name="dollar.oldtab" 
d="M557 -268v252q-433 32 -475 448h166q9 -66 23.5 -112t47 -92t92 -73.5t146.5 -35.5v553q-210 39 -314 125t-104 256q0 156 116.5 264.5t301.5 118.5v180h119v-182q180 -19 286 -118t125 -269h-153q-23 114 -86 174.5t-172 74.5v-495q113 -19 191.5 -47.5t137 -74.5
t86 -114.5t27.5 -163.5q0 -169 -124.5 -286.5t-317.5 -130.5v-252h-119zM952 389q0 113 -59 171.5t-217 90.5v-532q121 12 198.5 86.5t77.5 183.5zM295 1069q0 -50 10.5 -85.5t38.5 -67t80 -54t133 -39.5v477q-122 -10 -192 -73.5t-70 -157.5z" />
    <glyph glyph-name="Euro.oldtab" 
d="M72 782v115h121q14 253 142 397t347 144q184 0 295.5 -111t136.5 -317h-164q-21 145 -86.5 219t-181.5 74q-299 0 -317 -406h438l-23 -115h-418v-153h388l-21 -117h-364q11 -197 89.5 -293t231.5 -96q125 0 195.5 78t95.5 239h160q-23 -218 -143 -338t-308 -120
q-217 0 -346.5 138.5t-144.5 391.5h-123v117h121v153h-121z" />
    <glyph glyph-name="sterling.oldtab" 
d="M119 627v123h127q-35 147 -35 278q0 181 125 295.5t313 114.5t299 -101t125 -274h-166q-23 119 -81.5 176t-176.5 57q-116 0 -189 -74t-73 -196t33 -276h424v-123h-398q31 -155 31 -262q0 -69 -26 -132q55 -13 175.5 -59.5t166.5 -46.5q84 0 130 39t52 131h143
q-8 -140 -88.5 -227.5t-216.5 -87.5q-74 0 -160 31t-160.5 62t-119.5 31q-61 0 -92.5 -31t-36.5 -75h-146q4 48 25 96t68 90.5t110 55.5q25 62 25 123q0 93 -47 262h-160z" />
    <glyph glyph-name="yen.oldtab" 
d="M209 559v115h309l-401 747h188l328 -645l313 645h166l-377 -747h312v-115h-334v-156h334v-114h-334v-289h-170v289h-334v114h334v156h-334z" />
    <glyph glyph-name="zero.oldtab" 
d="M618 127q159 0 240.5 106.5t81.5 298.5v209q0 185 -84 294.5t-240 109.5q-157 0 -242 -108t-85 -296v-211q0 -189 86 -296t243 -107zM618 -18q-228 0 -367.5 153.5t-139.5 392.5v211q0 242 138 394.5t367 152.5t365.5 -152.5t136.5 -390.5v-211q0 -245 -135 -397.5
t-365 -152.5z" />
    <glyph glyph-name="one.oldtab" 
d="M653 0v1094l-417 -303v163l430 314h161v-1268h-174z" />
    <glyph glyph-name="two.oldtab" 
d="M109 0v41l514 479q62 58 98.5 95.5t73.5 87.5t54 99.5t17 104.5q0 110 -69 175t-189 65q-258 0 -299 -313h-157q18 204 138.5 328t317.5 124q196 0 316 -105t120 -274q0 -39 -10 -78t-22.5 -70t-42.5 -71.5t-49.5 -65t-65 -70t-68.5 -67t-79 -73.5l-289 -269h639v-143
h-948z" />
    <glyph glyph-name="three.oldtab" 
d="M598 -215q-227 0 -361.5 126.5t-142.5 324.5h162q13 -144 97 -228t249 -84q167 0 248.5 77.5t81.5 215.5q0 143 -78.5 212t-235.5 69h-102v145h94q273 0 273 256q0 112 -65.5 179t-194.5 67q-135 0 -219.5 -76t-98.5 -205h-153q8 179 137.5 300.5t333.5 121.5
q102 0 184.5 -31t135.5 -84.5t81.5 -122t28.5 -145.5q0 -230 -224 -323q281 -74 281 -363q0 -198 -141.5 -315t-370.5 -117z" />
    <glyph glyph-name="four.oldtab" 
d="M784 -199v316h-710v57l639 1092h241v-1012h191v-137h-191v-316h-170zM287 254h497v876z" />
    <glyph glyph-name="five.oldtab" 
d="M606 -215q-220 0 -340.5 108.5t-136.5 290.5h162q22 -128 91.5 -194t221.5 -66q143 0 227 93.5t84 254.5q0 149 -82 241.5t-215 92.5q-120 0 -201 -34.5t-141 -102.5h-61v799h803v-150h-662v-469q46 43 122.5 69.5t172.5 26.5q194 0 318.5 -129.5t124.5 -343.5
q0 -146 -66.5 -258t-176.5 -170.5t-245 -58.5z" />
    <glyph glyph-name="six.oldtab" 
d="M635 -18q-131 0 -229.5 48t-157.5 134.5t-88 199.5t-29 252v103q0 364 146 564t395 200q169 0 282 -89.5t142 -258.5h-166q-25 103 -90 154.5t-181 51.5q-163 0 -255.5 -152.5t-98.5 -449.5q54 89 144 141t210 52q210 0 335.5 -134t125.5 -337q0 -216 -132.5 -347.5
t-352.5 -131.5zM635 119q134 0 220.5 92t86.5 242q0 154 -86 248t-223 94q-136 0 -227 -90t-91 -228q0 -169 90 -263.5t230 -94.5z" />
    <glyph glyph-name="seven.oldtab" 
d="M303 -199l569 1325h-733v140h959v-25l-617 -1440h-178z" />
    <glyph glyph-name="eight.oldtab" 
d="M616 -18q-89 0 -174 28t-155 79.5t-113 135t-43 185.5q0 141 76 235.5t201 136.5q-106 39 -164 120.5t-58 195.5q0 89 36.5 163t96.5 121.5t137 74t160 26.5q112 0 208.5 -45t158 -133.5t61.5 -202.5q0 -115 -59.5 -195t-165.5 -123q132 -46 206.5 -139.5t74.5 -230.5
q0 -103 -41.5 -187t-110.5 -136.5t-154.5 -80.5t-177.5 -28zM616 125q134 0 220 79t86 216q0 135 -85 211t-216 76q-132 0 -222 -77.5t-90 -213.5q0 -134 89 -212.5t218 -78.5zM623 846q112 0 178.5 67.5t66.5 186.5q0 108 -72 177t-180 69q-110 0 -182 -68t-72 -182
q0 -115 75.5 -182.5t185.5 -67.5z" />
    <glyph glyph-name="nine.oldtab" 
d="M571 -215q-190 0 -304.5 98.5t-141.5 270.5h166q28 -108 95.5 -168t199.5 -60q171 0 252.5 148t87.5 454q-53 -88 -143.5 -140t-207.5 -52q-204 0 -333 135t-129 336q0 215 135 347t352 132q132 0 229.5 -46.5t156 -132.5t86.5 -197.5t28 -250.5v-116q0 -758 -529 -758z
M602 473q136 0 224.5 89.5t88.5 228.5q0 170 -87.5 264t-227.5 94q-134 0 -221.5 -92t-87.5 -242q0 -154 86.5 -248t224.5 -94z" />
    <glyph glyph-name="zero.num" horiz-adv-x="716" 
d="M360 864q158 0 158 238v28q0 111 -41.5 173.5t-118.5 62.5q-78 0 -117.5 -61t-39.5 -177v-28q0 -116 41 -176t118 -60zM358 754q-137 0 -217 94t-80 250v28q0 158 81 252.5t216 94.5t216 -93t81 -250v-28q0 -157 -79.5 -252.5t-217.5 -95.5z" />
    <glyph glyph-name="one.num" horiz-adv-x="473" 
d="M215 764v565l-166 -110v120l182 125h123v-700h-139z" />
    <glyph glyph-name="two.num" horiz-adv-x="585" 
d="M16 764v22l263 279q110 113 110 199q0 48 -26.5 75t-75.5 27q-106 0 -123 -135h-125q6 115 72.5 178.5t179.5 63.5q109 0 171 -56t62 -151q0 -118 -135 -250l-149 -148h290v-104h-514z" />
    <glyph glyph-name="three.num" horiz-adv-x="636" 
d="M311 754q-125 0 -195 61t-73 166h125q14 -125 139 -125q64 0 96.5 29.5t32.5 81.5q0 110 -123 110h-53v97h51q115 0 115 100q0 43 -27.5 69.5t-79.5 26.5q-54 0 -87 -30t-39 -83h-125q6 96 74 156t180 60q109 0 172 -53.5t63 -135.5q0 -109 -117 -151q63 -14 100.5 -57.5
t37.5 -110.5q0 -98 -72 -154.5t-195 -56.5z" />
    <glyph glyph-name="four.num" horiz-adv-x="649" 
d="M387 764v141h-352v49l313 510h170v-458h92v-101h-92v-141h-131zM182 1006h207v354z" />
    <glyph glyph-name="five.num" horiz-adv-x="618" 
d="M297 754q-120 0 -184 58t-70 155h129q8 -53 35 -80t90 -27q56 0 87.5 36.5t31.5 100.5q0 62 -32 97.5t-89 35.5q-94 0 -143 -59h-74l8 393h430v-106h-326l-2 -189q54 62 154 62q97 0 156 -63.5t59 -172.5q0 -111 -71.5 -176t-188.5 -65z" />
    <glyph glyph-name="six.num" horiz-adv-x="655" 
d="M338 754q-75 0 -129.5 24.5t-86 70t-46.5 103.5t-15 131v19q0 176 82 273.5t217 97.5q96 0 155 -47.5t71 -139.5h-127q-10 41 -34 61.5t-71 20.5q-71 0 -111.5 -61t-43.5 -177q57 91 172 91q101 0 166 -63t65 -165q0 -108 -71 -173.5t-193 -65.5zM338 854q57 0 92 37.5
t35 97.5q0 62 -34.5 99.5t-92.5 37.5q-59 0 -96 -36t-37 -93q0 -66 36.5 -104.5t96.5 -38.5z" />
    <glyph glyph-name="seven.num" horiz-adv-x="548" 
d="M135 764l221 588h-321v112h493v-16l-254 -684h-139z" />
    <glyph glyph-name="eight.num" horiz-adv-x="641" 
d="M319 754q-112 0 -188 54.5t-76 152.5q0 66 34.5 111.5t94.5 66.5q-102 44 -102 145q0 86 70.5 137.5t169.5 51.5t168 -51t69 -136q0 -100 -104 -145q131 -50 131 -176q0 -99 -76 -155t-191 -56zM322 856q56 0 91.5 31t35.5 88q0 54 -35.5 85.5t-91.5 31.5q-55 0 -91 -32
t-36 -87t36 -86t91 -31zM322 1180q48 0 77 26.5t29 71.5q0 43 -30.5 69.5t-75.5 26.5q-47 0 -78 -26.5t-31 -71.5q0 -44 32 -70t77 -26z" />
    <glyph glyph-name="nine.num" horiz-adv-x="655" 
d="M309 754q-107 0 -170.5 50.5t-75.5 143.5h130q20 -88 116 -88q149 0 152 234q-57 -88 -170 -88q-103 0 -168.5 62t-65.5 165q0 110 70.5 176t191.5 66q137 0 208 -86.5t71 -241.5v-35q0 -172 -75 -265t-214 -93zM319 1102q58 0 95 35.5t37 91.5q0 67 -36.5 106t-95.5 39
q-57 0 -91.5 -37.5t-34.5 -99.5q0 -61 34 -98t92 -37z" />
    <glyph glyph-name="zero.den" horiz-adv-x="716" 
d="M360 100q158 0 158 238v29q0 111 -41.5 173t-118.5 62q-157 0 -157 -237v-29q0 -116 41 -176t118 -60zM358 -10q-137 0 -217 94t-80 250v28q0 158 81 252.5t216 94.5t216 -93t81 -249v-29q0 -157 -79.5 -252.5t-217.5 -95.5z" />
    <glyph glyph-name="one.den" horiz-adv-x="475" 
d="M215 0v565l-166 -110v120l182 125h123v-700h-139z" />
    <glyph glyph-name="two.den" horiz-adv-x="587" 
d="M16 0v23l263 278q110 113 110 199q0 48 -26.5 75t-75.5 27q-106 0 -123 -135h-125q6 115 72.5 178.5t179.5 63.5q109 0 171 -56t62 -151q0 -118 -135 -250l-149 -148h290v-104h-514z" />
    <glyph glyph-name="three.den" horiz-adv-x="638" 
d="M311 -10q-125 0 -195 61t-73 166h125q14 -125 139 -125q64 0 96.5 29.5t32.5 81.5q0 110 -123 110h-53v97h51q115 0 115 100q0 43 -27.5 69.5t-79.5 26.5q-54 0 -87 -29.5t-39 -82.5h-125q6 96 74 155.5t180 59.5q109 0 172 -53.5t63 -135.5q0 -109 -117 -151
q63 -14 100.5 -57.5t37.5 -110.5q0 -98 -72 -154.5t-195 -56.5z" />
    <glyph glyph-name="four.den" horiz-adv-x="651" 
d="M387 0v141h-352v49l313 510h170v-458h92v-101h-92v-141h-131zM182 242h207v354z" />
    <glyph glyph-name="five.den" horiz-adv-x="620" 
d="M297 -10q-120 0 -184 58t-70 155h129q8 -53 35 -80t90 -27q56 0 87.5 36.5t31.5 100.5q0 62 -32 98t-89 36q-93 0 -143 -60h-74l8 393h430v-106h-326l-2 -188q54 61 154 61q97 0 156 -63.5t59 -172.5q0 -111 -71.5 -176t-188.5 -65z" />
    <glyph glyph-name="six.den" horiz-adv-x="657" 
d="M338 -10q-75 0 -129.5 24.5t-86 70t-46.5 103.5t-15 131v19q0 176 82 273.5t217 97.5q96 0 155 -47.5t71 -139.5h-127q-10 41 -34 61.5t-71 20.5q-71 0 -111.5 -60.5t-43.5 -176.5q56 90 172 90q101 0 166 -63t65 -165q0 -108 -71 -173.5t-193 -65.5zM338 90
q57 0 92 37.5t35 97.5q0 62 -34.5 99.5t-92.5 37.5q-59 0 -96 -36t-37 -93q0 -66 36.5 -104.5t96.5 -38.5z" />
    <glyph glyph-name="seven.den" horiz-adv-x="550" 
d="M135 0l221 588h-321v112h493v-16l-254 -684h-139z" />
    <glyph glyph-name="eight.den" horiz-adv-x="643" 
d="M319 -10q-112 0 -188 54.5t-76 152.5q0 66 34.5 111.5t94.5 66.5q-102 44 -102 145q0 86 70.5 137.5t169.5 51.5t168 -51t69 -136q0 -100 -104 -145q131 -50 131 -176q0 -99 -76 -155t-191 -56zM322 92q56 0 91.5 31t35.5 88q0 54 -35.5 85.5t-91.5 31.5q-55 0 -91 -32
t-36 -87t36 -86t91 -31zM322 416q48 0 77 26.5t29 71.5q0 43 -30.5 69.5t-75.5 26.5q-47 0 -78 -26.5t-31 -71.5q0 -44 32 -70t77 -26z" />
    <glyph glyph-name="nine.den" horiz-adv-x="657" 
d="M309 -10q-107 0 -170.5 50.5t-75.5 143.5h130q20 -88 116 -88q149 0 152 234q-57 -88 -170 -88q-103 0 -168.5 62t-65.5 165q0 110 70.5 176t191.5 66q137 0 208 -86.5t71 -241.5v-35q0 -172 -75 -265t-214 -93zM319 338q58 0 95 35.5t37 91.5q0 67 -36.5 106t-95.5 39
q-57 0 -91.5 -37.5t-34.5 -99.5q0 -61 34 -98t92 -37z" />
    <glyph glyph-name="zero.sub" horiz-adv-x="716" 
d="M360 -76q158 0 158 238v28q0 111 -41.5 173.5t-118.5 62.5q-78 0 -117.5 -61t-39.5 -177v-28q0 -116 41 -176t118 -60zM358 -186q-137 0 -217 94t-80 250v28q0 158 81 252t216 94t216 -93t81 -249v-28q0 -157 -79.5 -252.5t-217.5 -95.5z" />
    <glyph glyph-name="one.sub" horiz-adv-x="475" 
d="M215 -178v565l-166 -111v121l182 125h123v-700h-139z" />
    <glyph glyph-name="two.sub" horiz-adv-x="587" 
d="M16 -176v22l263 279q110 113 110 199q0 48 -26.5 75t-75.5 27q-106 0 -123 -135h-125q6 115 72.5 178t179.5 63q109 0 171 -55.5t62 -150.5q0 -118 -135 -250l-149 -148h290v-104h-514z" />
    <glyph glyph-name="three.sub" horiz-adv-x="638" 
d="M311 -186q-125 0 -195 61t-73 166h125q14 -125 139 -125q64 0 96.5 29.5t32.5 81.5q0 110 -123 110h-53v96h51q115 0 115 101q0 43 -27.5 69.5t-79.5 26.5q-54 0 -87 -30t-39 -83h-125q6 96 74 155.5t180 59.5q109 0 172 -53t63 -135q0 -109 -117 -151
q63 -14 100.5 -57.5t37.5 -110.5q0 -98 -72 -154.5t-195 -56.5z" />
    <glyph glyph-name="four.sub" horiz-adv-x="651" 
d="M387 -176v141h-352v49l313 510h170v-458h92v-101h-92v-141h-131zM182 66h207v354z" />
    <glyph glyph-name="five.sub" horiz-adv-x="620" 
d="M297 -186q-120 0 -184 58t-70 155h129q8 -53 35 -80t90 -27q56 0 87.5 36.5t31.5 100.5q0 62 -32 97.5t-89 35.5q-94 0 -143 -59h-74l8 393h430v-106h-326l-2 -189q54 62 154 62q97 0 156 -63.5t59 -172.5q0 -111 -71.5 -176t-188.5 -65z" />
    <glyph glyph-name="six.sub" horiz-adv-x="657" 
d="M338 -186q-75 0 -129.5 24.5t-86 70t-46.5 103.5t-15 131v19q0 176 82 273t217 97q96 0 155 -47t71 -139h-127q-10 41 -34 61.5t-71 20.5q-71 0 -111.5 -61t-43.5 -177q57 91 172 91q101 0 166 -63t65 -165q0 -108 -71 -173.5t-193 -65.5zM338 -86q57 0 92 37.5t35 97.5
q0 62 -34.5 99.5t-92.5 37.5q-59 0 -96 -36t-37 -93q0 -66 36.5 -104.5t96.5 -38.5z" />
    <glyph glyph-name="seven.sub" horiz-adv-x="550" 
d="M135 -176l221 588h-321v112h493v-16l-254 -684h-139z" />
    <glyph glyph-name="eight.sub" horiz-adv-x="643" 
d="M319 -186q-112 0 -188 54t-76 152q0 66 34.5 112t94.5 67q-102 44 -102 145q0 86 70.5 137t169.5 51t168 -50.5t69 -135.5q0 -100 -104 -145q131 -50 131 -176q0 -99 -76 -155t-191 -56zM322 -84q56 0 91.5 31t35.5 88q0 54 -35.5 85.5t-91.5 31.5q-55 0 -91 -32t-36 -87
t36 -86t91 -31zM322 240q48 0 77 26.5t29 71.5q0 43 -30.5 69.5t-75.5 26.5q-47 0 -78 -26.5t-31 -71.5q0 -44 32 -70t77 -26z" />
    <glyph glyph-name="nine.sub" horiz-adv-x="657" 
d="M309 -186q-107 0 -170.5 50.5t-75.5 143.5h130q20 -88 116 -88q149 0 152 234q-57 -88 -170 -88q-103 0 -168.5 62t-65.5 165q0 110 70.5 176t191.5 66q137 0 208 -86.5t71 -241.5v-35q0 -172 -75 -265t-214 -93zM319 162q58 0 95 35.5t37 91.5q0 67 -36.5 106t-95.5 39
q-57 0 -91.5 -37.5t-34.5 -99.5q0 -61 34 -98t92 -37z" />
    <glyph glyph-name="plus.sub" horiz-adv-x="694" 
d="M291 -100v215h-207v108h207v217h112v-217h207v-108h-207v-215h-112z" />
    <glyph glyph-name="minus.sub" horiz-adv-x="694" 
d="M84 115v108h526v-108h-526z" />
    <glyph glyph-name="zero.sup" horiz-adv-x="716" 
d="M360 983q158 0 158 238v28q0 111 -41.5 173.5t-118.5 62.5q-78 0 -117.5 -61t-39.5 -177v-28q0 -116 41 -176t118 -60zM358 872q-137 0 -217 94.5t-80 250.5v28q0 158 81 252t216 94t216 -93t81 -249v-28q0 -157 -79.5 -253t-217.5 -96z" />
    <glyph glyph-name="one.sup" horiz-adv-x="475" 
d="M215 883v565l-166 -111v121l182 125h123v-700h-139z" />
    <glyph glyph-name="two.sup" horiz-adv-x="587" 
d="M16 883v22l263 279q110 113 110 198q0 48 -26.5 75.5t-75.5 27.5q-106 0 -123 -135h-125q6 115 72.5 178t179.5 63q109 0 171 -56t62 -151q0 -65 -34.5 -124.5t-100.5 -124.5l-149 -148h290v-104h-514z" />
    <glyph glyph-name="three.sup" horiz-adv-x="638" 
d="M311 872q-125 0 -195 61.5t-73 166.5h125q14 -125 139 -125q65 0 97 29t32 81q0 111 -123 111h-53v96h51q115 0 115 101q0 43 -27.5 69.5t-79.5 26.5q-54 0 -87 -30t-39 -83h-125q6 96 74 155.5t180 59.5q109 0 172 -53t63 -135q0 -110 -117 -152q63 -14 100.5 -57.5
t37.5 -110.5q0 -98 -72 -154.5t-195 -56.5z" />
    <glyph glyph-name="four.sup" horiz-adv-x="651" 
d="M387 883v141h-352v49l313 510h170v-459h92v-100h-92v-141h-131zM182 1124h207v355z" />
    <glyph glyph-name="five.sup" horiz-adv-x="620" 
d="M297 872q-120 0 -184 58t-70 155h129q8 -53 35 -79.5t90 -26.5q56 0 87.5 36.5t31.5 100.5q0 62 -32 97.5t-89 35.5q-94 0 -143 -59h-74l8 393h430v-106h-326l-2 -189q54 62 154 62q97 0 156 -63.5t59 -172.5q0 -111 -71.5 -176.5t-188.5 -65.5z" />
    <glyph glyph-name="six.sup" horiz-adv-x="657" 
d="M338 872q-75 0 -129.5 24.5t-86 70.5t-46.5 104t-15 131v19q0 176 82 273t217 97q96 0 155 -47t71 -139h-127q-10 41 -34 61.5t-71 20.5q-71 0 -111.5 -61t-43.5 -177q56 90 172 90q101 0 166 -62.5t65 -164.5q0 -108 -71 -174t-193 -66zM338 973q57 0 92 37.5t35 97.5
q0 62 -34.5 99.5t-92.5 37.5q-59 0 -96 -36t-37 -93q0 -66 36.5 -104.5t96.5 -38.5z" />
    <glyph glyph-name="seven.sup" horiz-adv-x="550" 
d="M135 883l221 587h-321v113h493v-16l-254 -684h-139z" />
    <glyph glyph-name="eight.sup" horiz-adv-x="643" 
d="M319 872q-112 0 -188 54.5t-76 152.5q0 66 34.5 111.5t94.5 66.5q-102 44 -102 146q0 86 70.5 137t169.5 51t168 -50.5t69 -135.5q0 -100 -104 -145q131 -50 131 -177q0 -99 -76 -155t-191 -56zM322 975q56 0 91.5 31t35.5 88q0 54 -35.5 85t-91.5 31q-55 0 -91 -31.5
t-36 -86.5t36 -86t91 -31zM322 1298q48 0 77 27t29 72q0 43 -30.5 69.5t-75.5 26.5q-47 0 -78 -26.5t-31 -71.5q0 -44 32 -70.5t77 -26.5z" />
    <glyph glyph-name="nine.sup" horiz-adv-x="657" 
d="M309 872q-107 0 -170.5 51t-75.5 144h130q20 -88 116 -88q149 0 152 233q-57 -88 -170 -88q-103 0 -168.5 62.5t-65.5 165.5q0 109 70.5 175t191.5 66q137 0 208 -86t71 -241v-35q0 -172 -75 -265.5t-214 -93.5zM319 1221q58 0 95 35.5t37 91.5q0 67 -36.5 106t-95.5 39
q-57 0 -91.5 -37.5t-34.5 -99.5q0 -61 34 -98t92 -37z" />
    <glyph glyph-name="plus.sup" horiz-adv-x="694" 
d="M291 961v215h-207v108h207v217h112v-217h207v-108h-207v-215h-112z" />
    <glyph glyph-name="minus.sup" horiz-adv-x="694" 
d="M84 1176v108h526v-108h-526z" />
    <glyph glyph-name="a.alt" horiz-adv-x="1259" 
d="M565 -18q-96 0 -182 36.5t-150.5 103.5t-102.5 168.5t-38 223.5v16q0 160 66 289t178 200t246 71q118 0 202 -51t134 -136v168h169v-1071h-169v180q-47 -81 -148 -139.5t-205 -58.5zM584 123q70 0 130.5 25.5t107.5 74t74.5 127t27.5 178.5v17q0 199 -88 301t-238 102
t-240 -108.5t-90 -300.5v-17q0 -98 25.5 -175.5t69.5 -125.5t100.5 -73t120.5 -25z" />
    <glyph glyph-name="t.alt" horiz-adv-x="692" 
d="M223 0v928h-168v143h168v244h170v-244h236v-143h-236v-928h-170z" />
    <glyph glyph-name="germandbls.alt" horiz-adv-x="1259" 
d="M834 -18q-151 0 -247 83t-100 224h164q5 -74 52 -120t131 -46q83 0 129.5 45t46.5 137q0 37 -15 68t-48.5 59.5t-60 46t-77.5 47.5q-40 24 -60.5 36.5t-55 36.5t-53 44t-39 48t-29.5 59t-9 67q0 47 22.5 91.5t55.5 78t72.5 69.5t72.5 67t55.5 70t22.5 79q0 86 -60.5 132
t-168.5 46q-138 0 -215.5 -83t-77.5 -241v-1126h-170v1118q0 212 131 341.5t332 129.5q169 0 280 -84t111 -227q0 -66 -31 -124t-75 -98.5t-88.5 -77t-75.5 -76t-31 -79.5q0 -13 3.5 -23.5t13.5 -22t19.5 -20t31.5 -23t38.5 -24.5t51 -31t59.5 -36q52 -33 89.5 -63t76 -71.5
t58.5 -92t20 -107.5q0 -155 -96.5 -241t-255.5 -86z" />
    <glyph glyph-name="aacute.alt" horiz-adv-x="1259" 
d="M565 -18q-96 0 -182 36.5t-150.5 103.5t-102.5 168.5t-38 223.5v16q0 160 66 289t178 200t246 71q118 0 202 -51t134 -136v168h169v-1071h-169v180q-47 -81 -148 -139.5t-205 -58.5zM584 123q70 0 130.5 25.5t107.5 74t74.5 127t27.5 178.5v17q0 199 -88 301t-238 102
t-240 -108.5t-90 -300.5v-17q0 -98 25.5 -175.5t69.5 -125.5t100.5 -73t120.5 -25zM535 1255l127 301h212l-212 -301h-127z" />
    <glyph glyph-name="abreve.alt" horiz-adv-x="1259" 
d="M565 -18q-96 0 -182 36.5t-150.5 103.5t-102.5 168.5t-38 223.5v16q0 160 66 289t178 200t246 71q118 0 202 -51t134 -136v168h169v-1071h-169v180q-47 -81 -148 -139.5t-205 -58.5zM584 123q70 0 130.5 25.5t107.5 74t74.5 127t27.5 178.5v17q0 199 -88 301t-238 102
t-240 -108.5t-90 -300.5v-17q0 -98 25.5 -175.5t69.5 -125.5t100.5 -73t120.5 -25zM610 1268q-110 0 -187 76.5t-83 193.5h135q23 -131 135 -131q122 0 148 131h131q-6 -116 -87 -193t-192 -77z" />
    <glyph glyph-name="acircumflex.alt" horiz-adv-x="1259" 
d="M565 -18q-96 0 -182 36.5t-150.5 103.5t-102.5 168.5t-38 223.5v16q0 160 66 289t178 200t246 71q118 0 202 -51t134 -136v168h169v-1071h-169v180q-47 -81 -148 -139.5t-205 -58.5zM584 123q70 0 130.5 25.5t107.5 74t74.5 127t27.5 178.5v17q0 199 -88 301t-238 102
t-240 -108.5t-90 -300.5v-17q0 -98 25.5 -175.5t69.5 -125.5t100.5 -73t120.5 -25zM317 1255l222 295h153l219 -295h-125l-174 154l-174 -154h-121z" />
    <glyph glyph-name="adieresis.alt" horiz-adv-x="1259" 
d="M565 -18q-96 0 -182 36.5t-150.5 103.5t-102.5 168.5t-38 223.5v16q0 160 66 289t178 200t246 71q118 0 202 -51t134 -136v168h169v-1071h-169v180q-47 -81 -148 -139.5t-205 -58.5zM584 123q70 0 130.5 25.5t107.5 74t74.5 127t27.5 178.5v17q0 199 -88 301t-238 102
t-240 -108.5t-90 -300.5v-17q0 -98 25.5 -175.5t69.5 -125.5t100.5 -73t120.5 -25zM426 1298q-44 0 -76.5 32.5t-32.5 76.5t32.5 76.5t76.5 32.5t76.5 -32.5t32.5 -76.5t-32.5 -76.5t-76.5 -32.5zM811 1298q-44 0 -76.5 32.5t-32.5 76.5t32.5 76.5t76.5 32.5t76.5 -32.5
t32.5 -76.5t-32.5 -76.5t-76.5 -32.5z" />
    <glyph glyph-name="agrave.alt" horiz-adv-x="1259" 
d="M565 -18q-96 0 -182 36.5t-150.5 103.5t-102.5 168.5t-38 223.5v16q0 160 66 289t178 200t246 71q118 0 202 -51t134 -136v168h169v-1071h-169v180q-47 -81 -148 -139.5t-205 -58.5zM584 123q70 0 130.5 25.5t107.5 74t74.5 127t27.5 178.5v17q0 199 -88 301t-238 102
t-240 -108.5t-90 -300.5v-17q0 -98 25.5 -175.5t69.5 -125.5t100.5 -73t120.5 -25zM565 1255l-213 301h213l127 -301h-127z" />
    <glyph glyph-name="amacron.alt" horiz-adv-x="1259" 
d="M565 -18q-96 0 -182 36.5t-150.5 103.5t-102.5 168.5t-38 223.5v16q0 160 66 289t178 200t246 71q118 0 202 -51t134 -136v168h169v-1071h-169v180q-47 -81 -148 -139.5t-205 -58.5zM584 123q70 0 130.5 25.5t107.5 74t74.5 127t27.5 178.5v17q0 199 -88 301t-238 102
t-240 -108.5t-90 -300.5v-17q0 -98 25.5 -175.5t69.5 -125.5t100.5 -73t120.5 -25zM346 1327v131h537v-131h-537z" />
    <glyph glyph-name="aogonek.alt" horiz-adv-x="1259" 
d="M981 -373q-96 0 -154.5 44t-58.5 120q0 62 41.5 115.5t108.5 89.5v184q-47 -81 -148 -139.5t-205 -58.5q-96 0 -182 36.5t-150.5 103.5t-102.5 168.5t-38 223.5v16q0 160 66 289t178 200t246 71q118 0 202 -51t134 -136v168h169v-1061q-83 -51 -120 -95t-37 -91
q0 -74 78 -74q61 0 106 23v-121q-62 -25 -133 -25zM584 123q70 0 130.5 25.5t107.5 74t74.5 127t27.5 178.5v17q0 199 -88 301t-238 102t-240 -108.5t-90 -300.5v-17q0 -98 25.5 -175.5t69.5 -125.5t100.5 -73t120.5 -25z" />
    <glyph glyph-name="aring.alt" horiz-adv-x="1259" 
d="M565 -18q-96 0 -182 36.5t-150.5 103.5t-102.5 168.5t-38 223.5v16q0 160 66 289t178 200t246 71q118 0 202 -51t134 -136v168h169v-1071h-169v180q-47 -81 -148 -139.5t-205 -58.5zM584 123q70 0 130.5 25.5t107.5 74t74.5 127t27.5 178.5v17q0 199 -88 301t-238 102
t-240 -108.5t-90 -300.5v-17q0 -98 25.5 -175.5t69.5 -125.5t100.5 -73t120.5 -25zM602 1319q47 0 78 34t31 85t-31 84.5t-78 33.5t-77.5 -33.5t-30.5 -84.5t30.5 -85t77.5 -34zM602 1225q-91 0 -155 62.5t-64 150.5t64 150.5t155 62.5t155 -62.5t64 -150.5t-64 -150.5
t-155 -62.5z" />
    <glyph glyph-name="aringacute.alt" horiz-adv-x="1259" 
d="M565 -18q-96 0 -182 36.5t-150.5 103.5t-102.5 168.5t-38 223.5v16q0 160 66 289t178 200t246 71q118 0 202 -51t134 -136v168h169v-1071h-169v180q-47 -81 -148 -139.5t-205 -58.5zM584 123q70 0 130.5 25.5t107.5 74t74.5 127t27.5 178.5v17q0 199 -88 301t-238 102
t-240 -108.5t-90 -300.5v-17q0 -98 25.5 -175.5t69.5 -125.5t100.5 -73t120.5 -25zM602 1278q47 0 78 34t31 85t-31 85t-78 34t-77.5 -34t-30.5 -85t30.5 -85t77.5 -34zM602 1184q-91 0 -155 62.5t-64 150.5t64 150.5t155 62.5t155 -62.5t64 -150.5t-64 -150.5t-155 -62.5z
M549 1698l115 260h213l-201 -260h-127z" />
    <glyph glyph-name="atilde.alt" horiz-adv-x="1259" 
d="M565 -18q-96 0 -182 36.5t-150.5 103.5t-102.5 168.5t-38 223.5v16q0 160 66 289t178 200t246 71q118 0 202 -51t134 -136v168h169v-1071h-169v180q-47 -81 -148 -139.5t-205 -58.5zM584 123q70 0 130.5 25.5t107.5 74t74.5 127t27.5 178.5v17q0 199 -88 301t-238 102
t-240 -108.5t-90 -300.5v-17q0 -98 25.5 -175.5t69.5 -125.5t100.5 -73t120.5 -25zM721 1268q-37 0 -80 22t-80 44t-61 22q-29 0 -51.5 -26t-30.5 -66h-123q12 108 69.5 172.5t137.5 64.5q37 0 79 -22t79 -44t61 -22q29 0 51.5 26t30.5 66h123q-12 -107 -69 -172t-136 -65z
" />
    <glyph glyph-name="tbar.alt" horiz-adv-x="692" 
d="M55 571v123h168v234h-168v143h168v244h170v-244h236v-143h-236v-234h236v-123h-236v-571h-170v571h-168z" />
    <glyph glyph-name="tcaron.alt" horiz-adv-x="692" 
d="M223 0v928h-168v143h168v244h170v-244h236v-143h-236v-928h-170zM522 1225l25 358h192l-98 -358h-119z" />
    <glyph glyph-name="tcommaaccent.alt" horiz-adv-x="692" 
d="M238 -451l-105 54l119 321l164 -49zM223 0v928h-168v143h168v244h170v-244h236v-143h-236v-928h-170z" />
    <glyph glyph-name="f.short" horiz-adv-x="677" 
d="M209 0v928h-154v143h154v174q0 165 79.5 254.5t235.5 89.5q73 0 117 -16v-143q-47 18 -111 18q-151 0 -151 -184v-193h262v-143h-262v-928h-170z" />
    <glyph glyph-name="f_f.short" horiz-adv-x="1267" 
d="M209 0v928h-154v143h154v160q0 165 80.5 254.5t238.5 89.5q62 0 127 -21v-143q-59 23 -120 23q-80 0 -118 -49.5t-38 -135.5v-178h420v174q0 165 79.5 254.5t235.5 89.5q73 0 117 -16v-143q-47 18 -111 18q-151 0 -151 -184v-193h262v-143h-262v-928h-170v928h-420v-928
h-170z" />
    <glyph glyph-name="questiondown.uc" horiz-adv-x="1001" 
d="M635 1051v-103q0 -40 -7.5 -76.5t-26 -72t-32.5 -59t-46.5 -59t-46.5 -49.5l-52 -52q-37 -37 -58.5 -61t-45.5 -57t-35 -66t-11 -68q0 -95 55 -150t165 -55q115 0 188 72t84 194h160q-11 -181 -129.5 -294t-304.5 -113q-101 0 -178 28.5t-122 77.5t-67.5 108t-22.5 126
q0 44 13 86t28 71.5t48 68.5t52 57.5t60 58.5q45 43 69 68.5t54 65.5t43.5 80t13.5 85v88h152zM563 1475q54 0 92.5 -38.5t38.5 -93.5t-38.5 -93t-92.5 -38t-92.5 38t-38.5 93t38.5 93.5t92.5 38.5z" />
    <glyph glyph-name="exclamdown.uc" horiz-adv-x="589" 
d="M199 0l28 1051h131l29 -1051h-188zM295 1212q-54 0 -92.5 38t-38.5 93t38.5 93.5t92.5 38.5t92.5 -38.5t38.5 -93.5t-38.5 -93t-92.5 -38z" />
    <glyph glyph-name="hyphen.uc" horiz-adv-x="745" 
d="M123 590v160h500v-160h-500z" />
    <glyph glyph-name="endash.uc" horiz-adv-x="1077" 
d="M92 596v143h893v-143h-893z" />
    <glyph glyph-name="emdash.uc" horiz-adv-x="1812" 
d="M92 596v143h1628v-143h-1628z" />
    <glyph glyph-name="guilsinglleft.uc" horiz-adv-x="659" 
d="M387 231l-266 385l266 385h168l-256 -385l256 -385h-168z" />
    <glyph glyph-name="guilsinglright.uc" horiz-adv-x="659" 
d="M104 231l256 385l-256 385h168l267 -385l-267 -385h-168z" />
    <glyph glyph-name="guillemotleft.uc" horiz-adv-x="1024" 
d="M387 231l-266 385l266 385h168l-256 -385l256 -385h-168zM752 231l-267 385l267 385h168l-256 -385l256 -385h-168z" />
    <glyph glyph-name="guillemotright.uc" horiz-adv-x="1024" 
d="M104 231l256 385l-256 385h168l267 -385l-267 -385h-168zM469 231l256 385l-256 385h168l266 -385l-266 -385h-168z" />
    <glyph glyph-name="parenleft.uc" horiz-adv-x="659" 
d="M451 -201q-145 171 -239.5 406t-94.5 495t94.5 497t239.5 407h167q-141 -178 -232 -414t-91 -490q0 -253 90.5 -487.5t232.5 -413.5h-167z" />
    <glyph glyph-name="parenright.uc" horiz-adv-x="659" 
d="M41 -201q142 179 233 414.5t91 488.5t-91 488t-233 414h168q145 -170 239.5 -406t94.5 -496t-94.5 -496.5t-239.5 -406.5h-168z" />
    <glyph glyph-name="bracketleft.uc" horiz-adv-x="729" 
d="M180 -172v1765h459v-135h-289v-1495h289v-135h-459z" />
    <glyph glyph-name="bracketright.uc" horiz-adv-x="729" 
d="M90 -172v135h289v1495h-289v135h459v-1765h-459z" />
    <glyph glyph-name="braceleft.uc" horiz-adv-x="780" 
d="M690 -178q-233 0 -334.5 90t-70.5 301l28 195q10 45 1 88t-31.5 76t-74 53t-126.5 20v127q75 0 126.5 20t74 53.5t31.5 76.5t-1 88l-28 194q-31 211 70.5 301t334.5 90v-129q-104 -1 -159 -23t-77 -79.5t-8 -163.5l29 -217q28 -215 -201 -274q229 -59 201 -275l-29 -217
q-14 -106 8 -163.5t77 -79.5t159 -23v-129z" />
    <glyph glyph-name="braceright.uc" horiz-adv-x="780" 
d="M90 -178v129q104 1 159 23t77 79.5t8 163.5l-29 217q-28 216 201 275q-229 59 -201 274l29 217q14 106 -8 163.5t-77 79.5t-159 23v129q233 0 335 -90t71 -301l-29 -194q-10 -45 -1 -88t31.5 -76.5t74 -53.5t126.5 -20v-127q-75 0 -126.5 -20t-74 -53t-31.5 -76t1 -88
l29 -195q31 -211 -71 -301t-335 -90z" />
    <glyph glyph-name="slash.uc" horiz-adv-x="825" 
d="M49 -172l559 1765h156l-559 -1765h-156z" />
    <glyph glyph-name="backslash.uc" horiz-adv-x="825" 
d="M618 -172l-557 1765h156l557 -1765h-156z" />
    <glyph glyph-name="bar.uc" horiz-adv-x="518" 
d="M190 -172v1765h138v-1765h-138z" />
    <glyph glyph-name="at.uc" horiz-adv-x="1873" 
d="M940 -119q-155 0 -288.5 43.5t-230.5 119.5t-166.5 177.5t-103.5 220.5t-34 246q0 179 68 338t182.5 270.5t270 176.5t325.5 65q174 0 323 -56t252 -153.5t161 -231.5t58 -286q0 -108 -24 -196t-62 -144.5t-88 -95t-100.5 -54.5t-100.5 -16q-113 0 -164.5 44t-62.5 128
q-44 -80 -125.5 -133t-171.5 -53q-146 0 -232.5 93t-86.5 253q0 198 113.5 329.5t277.5 131.5q98 0 157 -38.5t82 -96.5l15 118h170l-60 -499q-21 -158 90 -158q95 0 159.5 96.5t64.5 286.5q0 269 -171.5 431.5t-473.5 162.5q-199 0 -355 -88.5t-244 -250.5t-88 -370
q0 -137 42.5 -257.5t123 -214t209 -148t289.5 -54.5q158 0 263.5 36.5t201.5 117.5h158q-78 -131 -244.5 -211t-378.5 -80zM895 418q100 0 177 88t77 237q0 111 -54 167.5t-153 56.5q-98 0 -164.5 -88.5t-66.5 -239.5q0 -103 50.5 -162t133.5 -59z" />
    </font>
</defs>
</svg>
